Download The Hangover Part 2 (2011) DVDRip XViD-EP1C torrent

Fake torrent

The Hangover Part 2 (2011) DVDRip XViD-EP1C torrent

Total size: 730.85 Mb Seeds 0 Leechs 0
[img]http://film-book.com/wp-content/uploads/2011/03/the-hangover-2-movie-poster-01.jpg[/img] the-hangover-2-movie-poster-01.jpg Screenshots: [img]http://padamhosting.com/out.php/i108843_vlcsnap2011090616h16m38s69.png[/img] i108843_vlcsnap2011090616h16m38s69.png [img]http://padamhosting.com/out.php/i108842_vlcsnap2011090616h16m43s109.png[/img] i108842_vlcsnap2011090616h16m43s109.png [code] Format : AVI Format/Info : Audio Video Interleave Format profile : OpenDML Duration : 2h 16mn Overall bit rate : 1 239 Kbps Writing application : VirtualDubMod 1.5.10.2 (build 2542/release) Writing library : VirtualDubMod build 2542/release Video ID : 0 Format : MPEG-4 Visual Format profile : AdvancedSimple@L5 Format settings, BVOP : Yes Format settings, QPel : No Format settings, GMC : No warppoints Format settings, Matrix : Default (MPEG) Codec ID : XVID Codec ID/Hint : XviD Duration : 2h 16mn Bit rate : 1 038 Kbps Width : 640 pixels Height : 272 pixels Display aspect ratio : 2.35:1 Frame rate : 23.976 fps Resolution : 24 bits Colorimetry : 4:2:0 Scan type : Progressive Bits/(Pixel*Frame) : 0.249 Stream size : 1 013 MiB (84%) Writing library : XviD 1.2.1 (UTC 2008-12-04) Audio ID : 1 Format : MPEG Audio Format version : Version 1 Format profile : Layer 3 Codec ID : 55 Codec ID/Hint : MP3 Duration : 2h 16mn Bit rate mode : Constant Bit rate : 192 Kbps Channel(s) : 2 channels Sampling rate : 48.0 KHz Resolution : 16 bits Stream size : 187 MiB (15%) Alignment : Aligned on interleaves Interleave, duration : 24 ms (0.58 video frame) Interleave, preload duration : 192 ms Writing library : LAME3.98r This torrent is not seedbox supported, please seed it to the MAX How To Get Your Maxspeed (uTorrent) Torrent Client - Preferences - Bandwidth - Number of connections - Set aprox. 500 for each Torrent Client - Preferences - BiTorrent - Protocol Encryption - Forced Bandwidth Allocation - High (Set download/upload limit - Unlimited) Stop Other Active Torrents - Start downloading and wait for connections. Enjoy and Seed for at least 1:1 ratio. Don't forget to say thanks/leave reviews. Before downloading you should check/google search sample "release name""sample". Greets to all actual/future p2p/scene QUALITY groups and affiliate websites. Don't trust IMDb robot or bad ratings,always watch some trailers first. Please spread this release/torrent to your friends/forums/etc. If you need translation subs visit some subtitles sites. Report if you see online streaming or other spam links. [/code]
FileSize
The Hangover Part 2 (2011) DVDRip XViD-EP1C/Downloaded From ExtraTorrent.Com.txt16.00 b
The Hangover Part 2 (2011) DVDRip XViD-EP1C/Downloaded From H33T.Com.txt8.00 b
The Hangover Part 2 (2011) DVDRip XViD-EP1C/Screenshots/vlcsnap-2011-09-06-16h16m38s69.png449.46 Kb
The Hangover Part 2 (2011) DVDRip XViD-EP1C/Screenshots/vlcsnap-2011-09-06-16h16m43s109.png434.41 Kb
The Hangover Part 2 (2011) DVDRip XViD-EP1C/Seeded By Novalayer.Org.txt13.00 b
The Hangover Part 2 (2011) DVDRip XViD-EP1C/The Hangover Part 2 (2011) DVDRip XViD-EP1C.asf729.43 Mb
The Hangover Part 2 (2011) DVDRip XViD-EP1C/The-Hangover-Part-2-Movie-09x13-Poster.jpg567.40 Kb
TrackerSeedsLeechsDownloaded
http://tracker.istole.it/scrape000
http://tracker2.istole.it:6969/scrape000
http://tracker.novalayer.org:6969/scrape000
Report this torrent
We will carefully monitor this report and react whenever possible.
Thanks for helping us in filtering out bad content and improving TorrentReactor for every other visitor!
Please login or register to be able to report torrents.

Your comment
Please Login or register to be able to add comments.
All comments

No one has added a comment yet. Be the first one.

Related torrents
The Hangover Part 2 (2011) DVDRip XViD-EP1C, related to The Hangover Part 2 (2011) DVDRip XViD-EP1C