Download Captain America The First Avenger 2011 PPVRIP IFLIX torrent

Captain America The First Avenger 2011 PPVRIP IFLIX torrent

Total size: 1.43 Gb Seeds 0 Leechs 0
Captain America The First Avenger 2011 PPVRIP IFLIX
http://www.imdb.com/title/tt0458339/

[IMG]http://img12.imageshack.us/img12/5743/captain2011.jpg[/IMG]
[IMG]http://img233.imageshack.us/img233/6087/50472354.png[/IMG]
[IMG]http://img98.imageshack.us/img98/6324/13771694.png[/IMG]
[IMG]http://img231.imageshack.us/img231/6879/70476388.png[/IMG]
[embed=youtube]http://www.youtube.com/watch?v=jX-dpQAginE[/embed]

Language                         : English
Format                           : AVI
Format/Info                      : Audio Video Interleave
File size                        : 1.42 GiB
Duration                         : 2h 4mn
Overall bit rate                 : 1 640 Kbps

Video
ID                               : 0
Format                           : MPEG-4 Visual
Format settings, BVOP            : Yes
Format settings, QPel            : No
Format settings, GMC             : No warppoints
Format settings, Matrix          : Default (H.263)
Codec ID                         : DX50
Codec ID/Hint                    : DivX 5
Duration                         : 2h 4mn
Bit rate                         : 1 500 Kbps
Width                            : 640 pixels
Height                           : 480 pixels
Display aspect ratio             : 4:3
Frame rate                       : 29.970 fps
Resolution                       : 24 bits
Colorimetry                      : 4:2:0
Scan type                        : Progressive
Bits/(Pixel*Frame)               : 0.163
Stream size                      : 1.30 GiB (91%)
Writing library                  : DivX 2151n

Audio
ID                               : 1
Format                           : MPEG Audio
Format version                   : Version 1
Format profile                   : Layer 3
Codec ID                         : 55
Codec ID/Hint                    : MP3
Duration                         : 2h 4mn
Bit rate mode                    : Constant
Bit rate                         : 128 Kbps
Channel(s)                       : 2 channels
Sampling rate                    : 48.0 KHz
Resolution                       : 16 bits
Stream size                      : 114 MiB (8%)
Alignment                        : Aligned on interleaves
Interleave, duration             : 33 ms (1.00 video frame)

Release notes...

Another quality release from IFLIX
More to come very soon!

Video source: Ours
Audio source: Ours

Greetings to all other groups out there. You all do awesome work and we greatly appreciate it.
IFLIX :-)
FileSize
Captain America The First Avenger 2011 PPVRIP IFLIX www.IWANNADOWNLOAD.com.avi1.42 Gb
Sample.avi6.81 Mb
Captain America The First Avenger 2011 PPVRIP IFLIX www.IWANNADOWNLOAD.com INFO.txt2.54 Kb
Torrent downloaded from Demonoid.com.txt47.00 b
Torrent downloaded from Extratorrent.com.txt40.00 b
Torrent downloaded from Rarbg.com.txt33.00 b
tracked_by_h33t_com.txt23.00 b
TrackerSeedsLeechsDownloaded
http://tracker2.istole.it:6969/scrape000
http://tracker.istole.it:80/scrape000
http://9.rarbg.com:2710/scrape000
http://tracker.publicbt.com:80/scrape000
http://tracker.torrent.to:2710/scrape000
Report this torrent
We will carefully monitor this report and react whenever possible.
Thanks for helping us in filtering out bad content and improving TorrentReactor for every other visitor!
Please login or register to be able to report torrents.

Your comment

Please Login or register to be able to add comments.

All comments

No one has added a comment yet. Be the first one.

Related torrents

Captain America The First Avenger 2011 PPVRIP IFLIX, related to Captain America The First Avenger 2011 PPVRIP IFLIX