Download Never Back Down 2 DVDSCR 2011 XViD IMAGiNE torrent

Fake torrent

Never Back Down 2 DVDSCR 2011 XViD IMAGiNE torrent

Total size: 1.38 Gb Seeds 0 Leechs 0
[img]http://img801.imageshack.us/img801/6114/neverq.jpg[/img]
[code]
Never Back Down 2 DVDSCR 2011 XViD - IMAGiNE

Ripper ...........:IMAGiNE IMDB Rating.......:6.5/10
Video Codec.......:XVID Release Date......:25/08/11
Audio Codec.......:AC3 Theatre Date......:nil
Audio Bitrate.....:192 Runtime...........:1h 42mn
Subtitles.........:NIL Language..........:ENGLISH
Resolution........:720 x 400 IMDb URL..........:http://www.imdb.com/title/tt1754264/


DETAILS:

Video
ID : 0
Format : MPEG-4 Visual
Format profile : Advanced Simple@L5
Format settings, BVOP : 2
Format settings, QPel : No
Format settings, GMC : No warppoints
Format settings, Matrix : Default (H.263)
Muxing mode : Packed bitstream
Codec ID : XVID
Codec ID/Hint : XviD
Duration : 1h 42mn
Bit rate : 1 703 Kbps
Width : 720 pixels
Height : 400 pixels
Display aspect ratio : 16:9
Frame rate : 29.970 fps
Color space : YUV
Chroma subsampling : 4:2:0
Bit depth : 8 bits
Scan type : Progressive
Compression mode : Lossy
Bits/(Pixel*Frame) : 0.197
Stream size : 1.22 GiB (89%)
Writing library : XviD 64

Audio
ID : 1
Format : AC-3
Format/Info : Audio Coding 3
Mode extension : CM (complete main)
Codec ID : 2000
Duration : 1h 42mn
Bit rate mode : Constant
Bit rate : 192 Kbps
Channel(s) : 2 channels
Channel positions : Front: L R
Sampling rate : 48.0 KHz
Bit depth : 16 bits
Compression mode : Lossy
Stream size : 141 MiB (10%)
Alignment : Aligned on interleaves
Interleave, duration : 33 ms (1.00 video frame)
Interleave, preload duration : 512 ms

Plot:
Four fighters different backgrounds come together to train under an ex MMA rising star and then ultimately have to fight each other and the traitor in heir midst.

SOURCES:
VIDEO:.............CW Thanks matey
AUDIO:.............CW Thanks matey
NOTES:
IMAGiNE bringing you another release..........
Never Back Down 2 dvdscr.........
Ok folks heres another nice dvdscr.......
source was good so not much work needed, made a script to sharpen a bit resize ect audio ac3 remuxed to our encode.
Enjoy!
[/code]
Screens:
[img]http://img30.imageshack.us/img30/9418/51290036.png[/img]
[img]http://img850.imageshack.us/img850/6128/73001642.png[/img]
[img]http://img840.imageshack.us/img840/4084/3q7h8r1y.png[/img
[img]http://img641.imageshack.us/img641/7303/49265933.png[/img]
FileSize
Never Back Down 2 DVDSCR 2011 XViD - IMAGiNE [NO RAR]/att-networks.com.txt39.00 b
Never Back Down 2 DVDSCR 2011 XViD - IMAGiNE [NO RAR]/Never Back Down 2 DVDSCR 2011 XViD - IMAGiNE SAMPLE.avi11.83 Mb
Never Back Down 2 DVDSCR 2011 XViD - IMAGiNE [NO RAR]/Never Back Down 2 dvdscr 2011 XViD - IMAGiNE.avi1.37 Gb
Never Back Down 2 DVDSCR 2011 XViD - IMAGiNE [NO RAR]/Never Back Down 2 DVDSCR 2011 XViD - IMAGiNE.nfo4.75 Kb
Never Back Down 2 DVDSCR 2011 XViD - IMAGiNE [NO RAR]/northernwarriors.net.txt135.00 b
Never Back Down 2 DVDSCR 2011 XViD - IMAGiNE [NO RAR]/NW RG.nfo12.96 Kb
Never Back Down 2 DVDSCR 2011 XViD - IMAGiNE [NO RAR]/sceneunderground.org.txt77.00 b
Never Back Down 2 DVDSCR 2011 XViD - IMAGiNE [NO RAR]/Torrent downloaded from Demonoid.me.txt46.00 b
Never Back Down 2 DVDSCR 2011 XViD - IMAGiNE [NO RAR]/Torrent downloaded from Demunoid.com.txt43.00 b
TrackerSeedsLeechsDownloaded
udp://tracker.openbittorrent.com:80/scrape000
http://opentracker.umunu.com:80/scrape000
http://inferno.demonoid.me:3401/scrape000
http://scrape.torrentsmd.com:6969/scrape000
http://scrape.torrentsmd.com:8080/scrape.php000
http://tracker.concen.cc/scrape000
http://pow7.com/scrape000
http://byteshower.appspot.com/scrape000
http://open.nyaatorrents.info:6544/scrape000
http://cpleft.com:2710/scrape000
http://tracker.dm258.cn:7070/scrape000
http://exodus.desync.com/scrape000
http://9.rarbg.com:2710/scrape000
http://tracker.dm258.cn:6868/scrape000
Report this torrent
We will carefully monitor this report and react whenever possible.
Thanks for helping us in filtering out bad content and improving TorrentReactor for every other visitor!
Please login or register to be able to report torrents.

Your comment

Please Login or register to be able to add comments.

All comments

No one has added a comment yet. Be the first one.

Related torrents

Never Back Down 2 DVDSCR 2011 XViD IMAGiNE, related to Never Back Down 2 DVDSCR 2011 XViD IMAGiNE