Fake torrent

30 Minutes or Less (2011) DVDRip XviD-MAX torrent

Total size: 1.17 Gb Seeds 0 Leechs 0
30 Minutes or Less (2011) DVDRip XviD-MAX
[COLOR=#3300FF]30 Minutes or Less (2011) DVDRip XviD-MAXSPEED[/COLOR]

Screens:

http://postimg.com/image/45000/photo-44033.jpg

http://postimg.com/image/45000/photo-44034.jpg

http://postimg.com/image/45000/photo-44035.jpg

http://postimg.com/image/45000/photo-44036.jpg

http://postimg.com/image/45000/photo-44037.jpg

http://postimg.com/image/45000/photo-44038.jpg

IMDB Link: http://www.imdb.com/title/tt1622547/

Format : AVI
Format/Info : Audio Video Interleave
Format profile : OpenDML
Duration : 1h 47mn
Overall bit rate : 1 239 Kbps
Writing application : VirtualDubMod 1.5.10.2 (build 2542/release)
Writing library : VirtualDubMod build 2542/release
Original source form : MAX TORRENTZ
Copyright : SIGISMUNT
.
Video
ID : 0
Format : MPEG-4 Visual
Format profile : AdvancedSimple@L5
Format settings, BVOP : Yes
Format settings, QPel : No
Format settings, GMC : No warppoints
Format settings, Matrix : Default (MPEG)
Codec ID : XVID
Codec ID/Hint : XviD
Duration : 1h 47mn
Bit rate : 1 038 Kbps
Width : 640 pixels
Height : 272 pixels
Display aspect ratio : 2.35:1
Frame rate : 23.976 fps
Resolution : 24 bits
Colorimetry : 4:2:0
Scan type : Progressive
Bits/(Pixel*Frame) : 0.249
Stream size : 1 013 MiB (84%)
Writing library : XviD 1.2.1 (UTC 2008-12-04)
.
Audio
ID : 1
Format : MPEG Audio
Format version : Version 1
Format profile : Layer 3
Codec ID : 55
Codec ID/Hint : MP3
Duration : 1h 47mn
Bit rate mode : Constant
Bit rate : 192 Kbps
Channel(s) : 2 channels
Sampling rate : 48.0 KHz
Resolution : 16 bits
Stream size : 187 MiB (15%)
Alignment : Aligned on interleaves
Interleave, duration : 24 ms (0.58 video frame)
Interleave, preload duration : 192 ms
Writing library : LAME3.98r

[COLOR=#DD0000]http://www.imdb.com/title/tt1622547/[/COLOR]
.
Source: DVD (perfect a/v/sync quality,sample included)
This torrent is not seedbox supported, please seed it to the MAX
.
Note:If you have something to offer as early releases,seedboxes,links,accounts,etc
please contact us on piratepedia[@]msn/gmail.com or our website torentz 3xforum ro
.
How To Get Your Maxspeed (uTorrent)
.
Torrent Client - Preferences - Bandwidth - Number of connections - Set aprox. 500 for each 
Torrent Client - Preferences - BiTorrent - Protocol Encryption - Forced
Bandwidth Allocation - High (Set download/upload limit - Unlimited)
Stop Other Active Torrents - Start downloading and wait for connections.
Enjoy and Seed for at least 1:1 ratio. Don't forget to say thanks/leave reviews.
Before downloading you should check/google search sample "release name""sample".
Greets to all actual/future p2p/scene QUALITY groups and affiliate websites.
Don't trust IMDb robot or bad ratings,always watch some trailers first.
Ignore stupid comments/fake/mislabeled/no-DVDrips/CAM/TS/RAR uploads.
Please spread this release/torrent to your friends/forums/etc.
If you need translation subs visit some subtitles sites.
Report if you see online streaming or other spam links.
Recommended movie player VLC PLAYER.
FileSize
30 Minutes or Less (2011) DVDRip XviD-MAXSPEED www.torentz.3xforum.ro.avi.avi1.04 Gb
30 Minutes or Less (2011) DVDRip XviD-MAXSPEED.nfo13.08 Kb
Sample.mov130.15 Mb
Torrent downloaded from Demonoid.me.txt46.00 b
Torrent downloaded from Extratorrent.com.txt40.00 b
Torrent downloaded from h33t.com.txt32.00 b
Torrent downloaded from Rarbg.com.txt33.00 b
TrackerSeedsLeechsDownloaded
http://tracker.torrent.to:2710/scrape000
http://umunu.com:1984/scrape000
http://i.bandito.org/scrape000
http://exodus.desync.com:6969/scrape000
http://9.rarbg.com:2710/scrape000
http://10.rarbg.com:80/scrape000
http://the.illusionist.tracker.prq.to/scrape000
http://the.illusionist.tracker.prq.to:6969/scrape000
http://tpb.tracker.prq.to/scrape000
http://armaggedon.tracker.prq.to/scrape000
http://artificial.intelligence.tracker.prq.to/scrape000
http://tracker.publicbt.com/scrape000
http://t1.pow7.com/scrape000
http://tracker.prq.to/scrape000
http://pow7.com/scrape000
http://tracker.torrentbay.to:6969/scrape000
http://red.tracker.prq.to/scrape000
Report this torrent
We will carefully monitor this report and react whenever possible.
Thanks for helping us in filtering out bad content and improving TorrentReactor for every other visitor!
Please login or register to be able to report torrents.

Your comment
Please Login or register to be able to add comments.
All comments

No one has added a comment yet. Be the first one.

Related torrents
30 Minutes or Less (2011) DVDRip XviD-MAX, related to 30 Minutes or Less (2011) DVDRip XviD-MAX