Fake torrent

The Help 2011 DVDSCR XViD-TARD torrent

Total size: 1.15 Gb Seeds 4 Leechs 0
~ ~ ~ ~ The Help 2011 DVDSCR XViD-TARD ~ ~ ~ ~Plot:A look at what happens when a southern town's unspoken code of rules and behavior is shattered by three courageous women who strike up an unlikely friendship. http://www.imdb.com/title/tt1454029/AUDiO: EnglishFormat                           : MPEG-4Format profile                   : Base Media / Version 2Codec ID                         : mp42File size                        : 1.14gbDuration                         : 1h 53mnOverall bit rate                 : 1 874 KbpsEncoded date                     : UTC 2011-07-24 07:33:18Tagged date                      : UTC 2011-07-24 10:35:08VideoID                               : 1Format                           : AVCFormat/Info                      : Advanced Video CodecFormat profile                   : [email protected] settings, CABAC           : YesFormat settings, ReFrames        : 2 framesCodec ID                         : avc1Codec ID/Info                    : Advanced Video CodingDuration                         : 1h 53mnBit rate mode                    : VariableBit rate                         : 1 789 KbpsMaximum bit rate                 : 5 803 KbpsWidth                            : 896 pixelsHeight                           : 564 pixelsDisplay aspect ratio             : 1.589Original display aspect ratio    : 2.2Frame rate mode                  : ConstantFrame rate                       : 29.970 fpsStandard                         : NTSCResolution                       : 24 bitsColorimetry                      : 4:2:0Scan type                        : ProgressiveBits/(Pixel*Frame)               : 0.118Stream size                      : 1.42 GiB (95%)Encoded date                     : UTC 2011-07-24 07:33:18Tagged date                      : UTC 2011-07-24 10:35:08AudioID                               : 2Format                           : AACFormat/Info                      : Advanced Audio CodecFormat version                   : Version 4Format profile                   : LCFormat settings, SBR             : NoCodec ID                         : 40Duration                         : 1h 53mnBit rate mode                    : VariableBit rate                         : 80.0 KbpsMaximum bit rate                 : 88.7 KbpsChannel(s)                       : 2 channelsChannel positions                : L RSampling rate                    : 48.0 KHzResolution                       : 16 bitsStream size                      : 65.1 MiB (4%)Title                            : Dolby Digital 2-ch 48KHzEncoded date                     : UTC 2011-07-24 07:33:18Tagged date                      : UTC 2011-07-24 10:35:08
FileSize
Speed.cd read me .txt47.00 b
TBANG(UsaBit.com).nfo13.08 Kb
The Help 2011 DVDSCR XViD-TARD.avi1.15 Gb
Torrent File Clean-Edited.txt185.00 b
www.Speed.Cd.txt47.00 b
TrackerSeedsLeechsDownloaded
udp://tracker.openbittorrent.com:80/scrape200
udp://tracker.publicbt.com:80/scrape200
http://umunu.com:1984/scrape000
http://genesis.1337x.org:1337/scrape000
http://exodus.1337x.org/scrape000
http://i.bandito.org/scrape000
http://9.rarbg.com:2710/scrape000
http://10.rarbg.com:80/scrape000
http://the.illusionist.tracker.prq.to/scrape000
http://the.illusionist.tracker.prq.to:6969/scrape000
http://tpb.tracker.prq.to/scrape000
http://armaggedon.tracker.prq.to/scrape000
http://artificial.intelligence.tracker.prq.to/scrape000
http://tracker.publicbt.com/scrape000
http://tracker.torrent.to:2710/scrape000
http://t1.pow7.com/scrape000
http://exodus.desync.com:6969/scrape000
http://tracker.prq.to/scrape000
http://pow7.com/scrape000
http://tracker.torrentbay.to:6969/scrape000
http://red.tracker.prq.to/scrape000
Report this torrent
We will carefully monitor this report and react whenever possible.
Thanks for helping us in filtering out bad content and improving TorrentReactor for every other visitor!
Please login or register to be able to report torrents.

Your comment
Please Login or register to be able to add comments.
All comments

No one has added a comment yet. Be the first one.

Related torrents
The Help 2011 DVDSCR XViD-TARD, related to The Help 2011 DVDSCR XViD-TARD