English

Fake torrent

The Change-Up [2011]DVDRiP[Eng]-FxG

Total size: 670.55 Mb Seeds 0 Leechs 0
The Change-Up [2011]DVDRiP[Eng]-FxG
Super 8 Poster 	
18
Super 8 (2011)
PG_13  112 min  -  Mystery | Sci-Fi | Thriller   -  10 June 2011 (USA)
    7.7/10  
Users: (30,295 votes) 428 reviews | Critics: 241 reviews Metascore: 72/100 (based on 40 reviews from Metacritic.com)

After witnessing a mysterious train crash, a group of friends in the summer of 1979 begin noticing strange happenings going around in their small town, and begin to investigate into the creepy phenomenon.

Director:
J.J. Abrams
Writer:
J.J. Abrams
Stars:
Elle Fanning, Amanda Michalka and Kyle Chandler 

--------------------------------------------------------------

Quality details:

--------------------

Audio.....: English
Subtitles.: None
Format                           : AVI
Format/Info                      : Audio Video Interleave
File size                        : 690 MiB
Duration                         : 2h 5mn
Overall bit rate                 : 1 431 Kbps
Writing library                  : MPlayer


Video
ID                               : 0
Format                           : MPEG-4 Visual
Format profile                   : Advanced Simple@L5
Format settings, BVOP            : Yes
Format settings, QPel            : No
Format settings, GMC             : No warppoints
Format settings, Matrix          : Custom
Codec ID                         : XVID
Codec ID/Hint                    : XviD
Duration                         : 2h 5mn
Bit rate                         : 1 298 Kbps
Width                            : 680 pixels
Height                           : 372 pixels
Display aspect ratio             : 16:9
Frame rate                       : 25.000 fps
Color space                      : YUV
Chroma subsampling               : 4:2:0
Bit depth                        : 8 bits
Scan type                        : Progressive
Bits/(Pixel*Frame)               : 0.205
Stream size                      : 810 MiB (91%)
Writing library                  : XviD 1.2.1 (UTC 2008-12-04)

-------------------------------------

Audio
ID                               : 1
Format                           : AC-3
Format/Info                      : Audio Coding 3
Mode extension                   : CM (complete main)
Codec ID                         : 2000
Duration                         : 2h 5mn
Bit rate mode                    : Constant
Bit rate                         : 128 Kbps
Channel(s)                       : 2 channels
Channel positions                : Front: L R
Sampling rate                    : 48.0 KHz
Bit depth                        : 16 bits
Stream size                      : 79.8 MiB (9%)
Alignment                        : Aligned on interleaves
Interleave, duration             : 480 ms (12.00 video frames)
Interleave, preload duration     : 960 ms
FileSize
The Change-Up [2011]DVDRiP[Eng]-FxG/Budget seedboxs.txt44.00 b
The Change-Up [2011]DVDRiP[Eng]-FxG/dreamthe.net.txt91.00 b
The Change-Up [2011]DVDRiP[Eng]-FxG/Movies [2011]DvDrip[Eng]-FXG.nfo1.61 Kb
The Change-Up [2011]DVDRiP[Eng]-FxG/northernwarriors.net.txt135.00 b
The Change-Up [2011]DVDRiP[Eng]-FxG/NW RG.nfo12.96 Kb
The Change-Up [2011]DVDRiP[Eng]-FxG/sceneunderground.org.txt77.00 b
The Change-Up [2011]DVDRiP[Eng]-FxG/The Change-Up [2011]DVDRiP[Eng]-FxG.avi670.54 Mb
TrackerSeedsLeechsDownloaded
http://tracker.torrent.to:2710/scrape000
http://tracker.publicbt.com/scrape000
http://exodus.desync.com:6969/scrape000
http://tracker.ilibr.org:6969/scrape000
http://tracker.torrentbay.to:6969/scrape000
http://pow7.com/scrape000

Report this torrent

We will carefully monitor this report and react whenever possible.
Thanks for helping us in filtering out bad content and improving TorrentReactor for every other visitor!
Please login or register to be able to report torrents.

Your comment

Please Login or register to be able to add comments.

All comments

No one has added a comment yet. Be the first one.

Related torrents

The Change-Up [2011]DVDRiP[Eng]-FxG, related to The Change-Up [2011]DVDRiP[Eng]-FxG