English

Fake torrent

Bad Teacher DVDRip FULL MOViE 2011 XviD-MAXSPEED

Total size: 691.59 Mb Seeds 0 Leechs 0
Bad Teacher DVDRip FULL MOViE 2011 XviD-MAXSPEED
[img]http://i2.kickasstorrents.com/users/0fd2cc8d9063d8c1c3819a5d8b90389c.jpg[/img] 0fd2cc8d9063d8c1c3819a5d8b90389c.jpg [code] Ripper ...........:IMAGiNE IMDB Rating.......:6.1/10 Video Codec.......:XVID Release Date......:08/07/11 Audio Codec.......:MP3 Theatre Date......:24/06/11 Audio Bitrate.....:128 Runtime...........:1h 28mn Subtitles.........:NIL Language..........:ENGLISH Resolution........:720 x 384 IMDb URL..........:Bad Teacher (2011) - IMDb DETAILS: Video ID : 0 Format : MPEG-4 Visual Format profile : Advanced Simple@L5 Format settings, BVOP : 2 Format settings, QPel : No Format settings, GMC : No warppoints Format settings, Matrix : Default (MPEG) Muxing mode : Packed bitstream Codec ID : XVID Codec ID/Hint : XviD Duration : 1h 28mn Bit rate : 2 091 Kbps Width : 720 pixels Height : 384 pixels Display aspect ratio : 1.875 Frame rate : 25.000 fps Color space : YUV Chroma subsampling : 4:2:0 Bit depth : 8 bits Scan type : Progressive Compression mode : Lossy Bits/(Pixel*Frame) : 0.303 Stream size : 1.29 GiB (94%) Writing library : XviD 61 Audio ID : 1 Format : MPEG Audio Format version : Version 1 Format profile : Layer 3 Mode : Joint stereo Mode extension : MS Stereo Codec ID : 55 Codec ID/Hint : MP3 Duration : 1h 28mn Bit rate mode : Constant Bit rate : 128 Kbps Channel(s) : 2 channels Sampling rate : 44.1 KHz Compression mode : Lossy Stream size : 80.8 MiB (6%) Alignment : Split accross interleaves Interleave, duration : 40 ms (1.00 video frame) Writing library : LAME3.98r SOURCES: VIDEO: .............. Ochen.plohaya.ychilka.D.2011.TS..avi ... Thanks AUDIO: .............. Thanks Matey NOTES: IMAGiNE bringing you another release.......... Bad Teacher 2011 TS.... Here we are with our encode of this movie for you all.. Now for the video we just made a script to tone down the yellow adjust rgb and black levels and saturation along with a sharpen filter With the audio it was just a case of syncing the audio to our encode... [/code] [img]http://i2.kickasstorrents.com/users/a7066621e30462d0e34050f3af1933c7.jpg[/img] a7066621e30462d0e34050f3af1933c7.jpg
FileSize
Bad Teacher DVDRip FULL MOViE 2011 XviD-MAXSPEED/Bad Teacher DVDRip 2011 XviD-MAXSPEED [0717].avi691.21 Mb
Bad Teacher DVDRip FULL MOViE 2011 XviD-MAXSPEED/Bad Teacher DVDRip 2011 XviD-MAXSPEED [0717].nfo2.85 Kb
Bad Teacher DVDRip FULL MOViE 2011 XviD-MAXSPEED/Bad Teacher [Poster].jpg273.35 Kb
Bad Teacher DVDRip FULL MOViE 2011 XviD-MAXSPEED/Screenshots/2b64df83b94228f071a2286adc50461c.jpg49.01 Kb
Bad Teacher DVDRip FULL MOViE 2011 XviD-MAXSPEED/Screenshots/a7066621e30462d0e34050f3af1933c7.jpg33.87 Kb
Bad Teacher DVDRip FULL MOViE 2011 XviD-MAXSPEED/Screenshots/eeb3ba2ca92e5d210c2dc8e3f09daa62.jpg29.87 Kb
Bad Teacher DVDRip FULL MOViE 2011 XviD-MAXSPEED/Torrent downloaded from extratorrent.com.txt16.00 b
Bad Teacher DVDRip FULL MOViE 2011 XviD-MAXSPEED/Torrent Seeded by Novalayer.com.txt13.00 b
TrackerSeedsLeechsDownloaded
udp://tracker.openbittorrent.com/scrape000
udp://tracker.istole.it/scrape000
http://tracker.ccc.de/scrape000
http://tracker.istole.it/scrape000
http://i.bandito.org/scrape000
http://cpleft.com:2710/scrape000
http://tracker.publicbt.com/scrape000
http://tracker.openbittorrent.com/scrape000
http://linuxoid.in:4433/scrape000

Report this torrent

We will carefully monitor this report and react whenever possible.
Thanks for helping us in filtering out bad content and improving TorrentReactor for every other visitor!
Please login or register to be able to report torrents.

Your comment

Please Login or register to be able to add comments.

All comments

No one has added a comment yet. Be the first one.

Related torrents

Bad Teacher DVDRip FULL MOViE 2011 XviD-MAXSPEED, related to Bad Teacher DVDRip FULL MOViE 2011 XviD-MAXSPEED