Download 17 Miracles 2011 DVDRip XViD-EP1C torrent

Fake torrent

17 Miracles 2011 DVDRip XViD-EP1C torrent

Total size: 737.01 Mb Seeds 0 Leechs 0
17 Miracles 2011 DVDRip XViD-EP1C
Format                           : AVI
Format/Info                      : Audio Video Inerleave
Format profile                   : OpenDML
File size                        : 1.36 GiB
Duration                         : 1h 33mn
Overall bit rate                 : 2 093 Kbps
Writing application              : VirtualDubMod 1.5.10.2 (build 2542/release)
Writing library                  : VirtualDubMod build 2542/release
Original source form             : MAX TORRENTZ
Copyright                        : SIGISMUNT

Video
ID                               : 0
Format                           : MPEG-4 Visual
Format profile                   : AdvancedSimple@L5
Format settings, BVOP            : Yes
Format settings, QPel            : No
Format settings, GMC             : No warppoints
Format settings, Matrix          : Default (H.263)
Codec ID                         : XVID
Codec ID/Hint                    : XviD
Duration                         : 1h 33mn
Bit rate                         : 1 897 Kbps
Width                            : 720 pixels
Height                           : 400 pixels
Display aspect ratio             : 16:9
Frame rate                       : 23.976 fps
Resolution                       : 24 bits
Colorimetry                      : 4:2:0
Scan type                        : Progressive
Bits/(Pixel*Frame)               : 0.275
Stream size                      : 1.23 GiB (91%)
Writing library                  : XviD 1.2.1 (UTC 2008-12-04)

Audio
ID                               : 1
Format                           : MPEG Audio
Format version                   : Version 1
Format profile                   : Layer 2
Codec ID                         : 50
Codec ID/Hint                    : MP1
Duration                         : 1h 33mn
Bit rate mode                    : Constant
Bit rate                         : 192 Kbps
Channel(s)                       : 2 channels
Sampling rate                    : 48.0 KHz
Resolution                       : 16 bits
Stream size                      : 128 MiB (9%)
Alignment                        : Aligned on interleaves
Interleave, duration             : 436 ms (10.45 video frames)
Interleave, preload duration     : 216 ms
 
http://www.imdb.com/title/tt1909270/

http://thepiratebay.org/user/extremezone/0/7

How To Get Your Maxspeed (uTorrent)

Torrent Client - Preferences - Bandwidth - Number of connections - Set aprox. 500 for each 
Torrent Client - Preferences - BiTorrent - Protocol Encryption - Forced
Bandwidth Allocation - High (Set download/upload limit - Unlimited)
Stop Other Active Torrents - Start downloading and wait for connections.
Enjoy and Seed for at least 1:1 ratio. Don't forget to say thanks/leave reviews.
Before downloading you should check/google search sample "release name""sample".
Greets to all actual/future p2p/scene QUALITY groups and affiliate websites.
Don't trust IMDb robot or bad ratings,always watch some trailers first.
Ignore stupid comments/fake/mislabeled/no-DVDrips/CAM/TS/RAR uploads.
Please spread this release/torrent to your friends/forums/etc.
If you need translation subs visit some subtitles sites.
Report if you see online streaming or other spam links.
Recommended movie player VLC PLAYER.		
FileSize
17 Miracles 2011 DVDRip XViD-EP1C/17 Miracles 2011 DVDRip XViD-EP1C.rar737.00 Mb
17 Miracles 2011 DVDRip XViD-EP1C/Read Info.txt191.00 b
17 Miracles 2011 DVDRip XViD-EP1C/Releases.nfo301.00 b
17 Miracles 2011 DVDRip XViD-EP1C/Torrent downloaded from Seedpeer.com.txt44.00 b
TrackerSeedsLeechsDownloaded
udp://tracker.openbittorrent.com:80/scrape000
http://exodus.1337x.org/scrape000
http://genesis.1337x.org:1337/scrape000
http://nemesis.1337x.org/scrape000
http://tracker.torrentbay.to:6969/scrape000
http://tracker.publicbt.com/scrape000
http://pow7.com/scrape000
http://10.rarbg.com/scrape000
Report this torrent
We will carefully monitor this report and react whenever possible.
Thanks for helping us in filtering out bad content and improving TorrentReactor for every other visitor!
Please login or register to be able to report torrents.

Your comment
Please Login or register to be able to add comments.
All comments

No one has added a comment yet. Be the first one.

Related torrents
17 Miracles 2011 DVDRip XViD-EP1C, related to 17 Miracles 2011 DVDRip XViD-EP1C