English

Fake torrent

Kung Fu Panda 2 DVDRip FULL MOViE 2011 XviD-MAXSPEED

Total size: 693.85 Mb Seeds 0 Leechs 0
Kung Fu Panda 2 DVDRip FULL MOViE 2011 XviD-MAXSPEED
[img]http://img694.imageshack.us/img694/1756/kungz.jpg[/img] kungz.jpg [code] ::File:: Kung.Fu.Panda.2.2011.TS.AC3.XViD-EP1C ::Video Source:: That Russian Good Good ::Audio Source:: Our Own Good Good ::Encoder::::::: iNK ::Syncer:::::::: iNK ::Language:::::: English ::IMDB:::::::::: http://www.imdb.com/title/tt1302011/ Po joins forces with a group of new kung-fu masters to take on an old enemy with a deadly new weapon. ::Specs::::::::: Format : AVI Format/Info : Audio Video Interleave Duration : 1h 20mn Overall bit rate : 2 421 Kbps Writing application : VirtualDubMod 1.5.10.2 (build 2540/release) Writing library : VirtualDubMod build 2540/release Video ID : 0 Format : MPEG-4 Visual Format profile : Advanced Simple@L5 Format settings, BVOP : Yes Format settings, QPel : No Format settings, GMC : No warppoints Format settings, Matrix : Default (H.263) Muxing mode : Packed bitstream Codec ID : XVID Codec ID/Hint : XviD Duration : 1h 20mn Bit rate : 2 220 Kbps Width : 672 pixels Height : 352 pixels Display aspect ratio : 1.909 Frame rate : 25.000 fps Color space : YUV Chroma subsampling : 4:2:0 Bit depth : 8 bits Scan type : Progressive Bits/(Pixel*Frame) : 0.375 Stream size : 1.26 GiB (92%) Writing library : XviD 58 Audio ID : 1 Format : AC-3 Format/Info : Audio Coding 3 Mode extension : CM (complete main) Codec ID : 2000 Duration : 1h 20mn Bit rate mode : Constant Bit rate : 192 Kbps Channel(s) : 2 channels Channel positions : Front: L R Sampling rate : 48.0 KHz Bit depth : 16 bits Stream size : 111 MiB (8%) Alignment : Split accross interleaves Interleave, duration : 40 ms (1.00 video frame) Interleave, preload duration : 500 ms ::NOTES::::::::: Presenting the first TeleSync of Kung Fu Panda 2. Ran a few things through to clean it up. This will do until something better. Also, comes with our own LiNE, in full stereo. Enjoy. //iNK [/code] [img]http://img638.imageshack.us/img638/1997/73476712.png[/img] 73476712.png [img]http://img155.imageshack.us/img155/2585/98303386.png[/img] 98303386.png
FileSize
Kung Fu Panda 2 DVDRip FULL MOViE 2011 XviD-MAXSPEED/Kung Fu Panda 2 DVDRip 2011 XviD-MAXSPEED [0707].avi693.27 Mb
Kung Fu Panda 2 DVDRip FULL MOViE 2011 XviD-MAXSPEED/Kung Fu Panda 2 DVDRip 2011 XviD-MAXSPEED [0707].nfo1.43 Kb
Kung Fu Panda 2 DVDRip FULL MOViE 2011 XviD-MAXSPEED/Kung Fu Panda 2 DVDRip [Poster].jpg77.22 Kb
Kung Fu Panda 2 DVDRip FULL MOViE 2011 XviD-MAXSPEED/kung_fu_panda_2-dvdrip-screenshot-1.png245.56 Kb
Kung Fu Panda 2 DVDRip FULL MOViE 2011 XviD-MAXSPEED/kung_fu_panda_2-dvdrip-screenshot-2.png263.49 Kb
Kung Fu Panda 2 DVDRip FULL MOViE 2011 XviD-MAXSPEED/Torrent downloaded from extratorrent.com.txt16.00 b
Kung Fu Panda 2 DVDRip FULL MOViE 2011 XviD-MAXSPEED/Torrent Seeded by Novalayer.com.txt13.00 b
TrackerSeedsLeechsDownloaded
udp://tracker.openbittorrent.com/scrape000
udp://tracker.istole.it/scrape000
http://genesis.1337x.org:1337/scrape000
http://tracker.istole.it/scrape000
http://exodus.1337x.org/scrape000
http://nemesis.1337x.org/scrape000
http://tracker.ccc.de/scrape000
http://tracker.publicbt.com/scrape000
http://tracker.openbittorrent.com/scrape000

Report this torrent

We will carefully monitor this report and react whenever possible.
Thanks for helping us in filtering out bad content and improving TorrentReactor for every other visitor!
Please login or register to be able to report torrents.

Your comment

Please Login or register to be able to add comments.

All comments

No one has added a comment yet. Be the first one.

Related torrents

Kung Fu Panda 2 DVDRip FULL MOViE 2011 XviD-MAXSPEED, related to Kung Fu Panda 2 DVDRip FULL MOViE 2011 XviD-MAXSPEED