Thor 2011 Eng torrent

Fake torrent

Thor 2011 Eng torrent

Total size: 744.66 Mb Seeds 0 Leechs 0
Format : AVI
 Format/Info : Audio Video Interleave
 Format profile : OpenDML
 File size : (100%)
 Duration : 1h 34mn
 Overall bit rate : 2 058 Kbps
 Writing application : VirtualDubMod 1.5.10.2 (build 2542/release)
 Writing library : VirtualDubMod build 2542/release
 Original source form : MAX TORRENTZ
 Copyright : SIGISMUNT

 Video
 ID : 0
 Format : MPEG-4 Visual
 Format profile : AdvancedSimple@L5
 Format settings, BVOP : Yes
 Format settings, QPel : No
 Format settings, GMC : No warppoints
 Format settings, Matrix : Default (H.263)
 Muxing mode : Packed bitstream
 Codec ID : XVID
 Codec ID/Hint : XviD
 Duration : 1h 34mn
 Bit rate : 1 862 Kbps
 Width : 720 pixels
 Height : 400 pixels
 Display aspect ratio : 16:9
 Frame rate : 25.000 fps
 Resolution : 24 bits
 Colorimetry : 4:2:0
 Scan type : Progressive
 Bits/(Pixel*Frame) : 0.259
 Stream size : 1.23 GiB (90%)
 Writing library : XviD 1.2.1 (UTC 2008-12-04)

 Audio
 ID : 1
 Format : MPEG Audio
 Format version : Version 1
 Format profile : Layer 3
 Codec ID : 55
 Codec ID/Hint : MP3
 Duration : 1h 34mn
 Bit rate mode : Constant
 Bit rate : 192 Kbps
 Channel(s) : 2 channels
 Sampling rate : 44.1 KHz
 Resolution : 16 bits
 Stream size : 130 MiB (10%)
 Alignment : Aligned on interleaves
 Interleave, duration : 449 ms (11.22 video frames)
 Interleave, preload duration : 208 ms
 Writing library : LAME3.98.9
FileSize
Thor [2011] Eng/Thor.avi744.66 Mb
TrackerSeedsLeechsDownloaded
http://nemesis.1337x.org/scrape000
http://tracker.publicbt.com/scrape000
Report this torrent
We will carefully monitor this report and react whenever possible.
Thanks for helping us in filtering out bad content and improving TorrentReactor for every other visitor!
Please login or register to be able to report torrents.

Your comment

Please Login or register to be able to add comments.

All comments

No one has added a comment yet. Be the first one.

Related movies

Search for full movies Thor 2011 Eng torrent, related to Thor 2011 Eng torrent