Thor 2011 DVDrip XviD IND

Fake torrent

Thor 2011 DVDrip XviD IND

Total size: 682.01 Mb Seeds 0 Leechs 0
http://static.cinemarx.ro/poze/filme-mari/2011/03/Thor_1300524256_2011.jpg



                          Another Fine Release Brought to you from - IMAGiNE                  
                                               
                   
                       Thor 2011 TS READNFO XViD - IMAGiNE


Ripper ...........: IMAGiNE                                        IMDB Rating.......:7.8/10
Video Codec.......: XVID                                         Release Date......:01/05/11
Audio Codec.......:MP3                                           Theatre Date......:27/05/11 limited
Audio Bitrate.....:128                                              Runtime.......:1h 44mn
Subtitles.........:NIL                                                 Language..........:ENGLISH
Resolution...... 720 x 304
IMDb URL..........:http://www.imdb.com/title/tt0800369/


DETAILS:

Video
ID                               : 0
Format                           : MPEG-4 Visual
Format profile                   : Advanced Simple@L5
Format settings, BVOP            : 2
Format settings, QPel            : No
Format settings, GMC             : No warppoints
Format settings, Matrix          : Default (MPEG)
Muxing mode                      : Packed bitstream
Codec ID                         : XVID
Codec ID/Hint                    : XviD
Duration                         : 1h 44mn
Bit rate                         : 1 636 Kbps
Width                            : 720 pixels
Height                           : 304 pixels
Display aspect ratio             : 2.35:1
Frame rate                       : 25.000 fps
Color space                      : YUV
Chroma subsampling               : 4:2:0
Bit depth                        : 8 bits
Scan type                        : Progressive
Compression mode                 : Lossy
Bits/(Pixel*Frame)               : 0.299
Stream size                      : 1.19 GiB (92%)
Writing library                  : XviD 61

Audio
ID                               : 1
Format                           : MPEG Audio
Format version                   : Version 1
Format profile                   : Layer 3
Mode                             : Joint stereo
Mode extension                   : MS Stereo
Codec ID                         : 55
Codec ID/Hint                    : MP3
Duration                         : 1h 44mn
Bit rate mode                    : Constant
Bit rate                         : 128 Kbps
Channel(s)                       : 2 channels
Sampling rate                    : 44.1 KHz
Compression mode                 : Lossy
Delay relative to video          : 4ms
Stream size                      : 95.2 MiB (7%)
Alignment                        : Split accross interleaves
Interleave, duration             : 40 ms (1.00 video frame)
Interleave, preload duration     : 500 ms


SOURCES:

VIDEO:Thor.iNT.CAM.XviD.Hungarian-G1-CiNEDUB
AUDIO:Thanks m8ty

NOTES:

IMAGiNE bringing you another release..........Thor 2011

Here we go with our V1 of Thor....for this we used cinedubs video,which was half
decent but had faults
like normaly with theirs ....yes the dreaded flicker
Now the flicker isn't has bad as some of theirs and only happens now and again
and now from start to end...
Also because they've used an auto white filter ....on some scenes you get a blue
hue over the screen.
Right fixed video by resizing,fixing colours best we could ...and also lowered the
chroma,also messed with the
brightness and contrast levels and also made it duller to tone down the glares ithad.
Audio we synced but never had full credits so we had to cut them...hence the
runtime being shorter....but we did leave
the after credit scene ;-)

For now this will do most ....specially those that moan it doesn't work on their
ps3's as this one works in the toastie or
microwave and most users have one of them ;-)
Oh also convert the line audio to DTS 69.1 for those that get the 69.1 surround
sound in the future ....so this is future proof
aswell ....so ladies and gentleman,boys and girls ....enjoy this fecking shite film

http://s55.radikal.ru/i149/1105/ab/30d307de5102.jpg

http://s015.radikal.ru/i331/1105/81/689b33b433c5.jpg

http://s50.radikal.ru/i129/1105/59/0e3b751a3d1a.jpg
FileSize
Thor 2011 DVDrip XviD-IND/Thor 2011 DVDrip XviD-IND.wmv682.01 Mb
Thor 2011 DVDrip XviD-IND/CODEC READ.txt103.00 b

Trackers not found

Report this torrent
We will carefully monitor this report and react whenever possible.
Thanks for helping us in filtering out bad content and improving TorrentReactor for every other visitor!
Please login or register to be able to report torrents.

Your comment

Please Login or register to be able to add comments.

All comments

No one has added a comment yet. Be the first one.

Related movies

Search for full movies Thor 2011 DVDrip XviD IND, related to Thor 2011 DVDrip XviD IND