Fake torrent

Skateland 2011 R5 XViD-IMAGiNE torrent

Total size: 816.09 Mb Seeds 0 Leechs 0
Format                           : AVI
Format/Info                      : Audio Video Interleave
Format profile                   : OpenDML
File size                        : 1.20 GiB
Duration                         : 1h 34mn
Overall bit rate                 : 1 824 Kbps
Writing application              : VirtualDubMod 1.5.10.2 (build 2542/release)
Writing library                  : VirtualDubMod build 2542/release
Original source form             : MAX TORRENTZ

Video
ID                               : 0
Format                           : MPEG-4 Visual
Format profile                   : AdvancedSimple@L5
Format settings, BVOP            : Yes
Format settings, QPel            : No
Format settings, GMC             : No warppoints
Format settings, Matrix          : Custom
Codec ID                         : XVID
Codec ID/Hint                    : XviD
Duration                         : 1h 34mn
Bit rate                         : 1 629 Kbps
Width                            : 720 pixels
Height                           : 400 pixels
Display aspect ratio             : 16:9
Frame rate                       : 23.976 fps
Original frame rate              : 25.000 fps
Resolution                       : 24 bits
Colorimetry                      : 4:2:0
Scan type                        : Progressive
Bits/(Pixel*Frame)               : 0.236
Stream size                      : 1.08 GiB (89%)
Writing library                  : XviD 58

Audio
ID                               : 1
Format                           : MPEG Audio
Format version                   : Version 1
Format profile                   : Layer 3
Codec ID                         : 55
Codec ID/Hint                    : MP3
Duration                         : 1h 34mn
Bit rate mode                    : Constant
Bit rate                         : 192 Kbps
Channel(s)                       : 2 channels
Sampling rate                    : 48.0 KHz
Resolution                       : 16 bits
Stream size                      : 130 MiB (100%)
Alignment                        : Aligned on interleaves
Interleave, duration             : 489 ms (11.73 video frames)
Interleave, preload duration     : 216 ms


clear {high quality}   		 :visual effects
FileSize
Skateland 2011 R5 XViD-IMAGiNE/Read Info.txt191.00 b
Skateland 2011 R5 XViD-IMAGiNE/Release.nfo2.05 Kb
Skateland 2011 R5 XViD-IMAGiNE/Skateland 2011 R5 XViD-IMAGiNE.rar816.09 Mb
Skateland 2011 R5 XViD-IMAGiNE/Torrent downloaded from Extratorrent.com.txt48.00 b
TrackerSeedsLeechsDownloaded
http://exodus.1337x.org/scrape000
http://genesis.1337x.org:1337/scrape000
http://nemesis.1337x.org/scrape000
http://tracker.publicbt.com/scrape000
http://tracker.openbittorrent.com/scrape000
http://pow7.com/scrape000
http://10.rarbg.com/scrape000
http://tracker.torrentbay.to:6969/scrape000
Report this torrent
We will carefully monitor this report and react whenever possible.
Thanks for helping us in filtering out bad content and improving TorrentReactor for every other visitor!
Please login or register to be able to report torrents.

Your comment
Please Login or register to be able to add comments.
All comments

No one has added a comment yet. Be the first one.

Related torrents
Skateland 2011 R5 XViD-IMAGiNE, related to Skateland 2011 R5 XViD-IMAGiNE