Download Crazy Stupid Love 2011 DVDRip XviD ExtraTorrentRG torrent

Fake torrent

Crazy Stupid Love 2011 DVDRip XviD ExtraTorrentRG torrent

Total size: 741.24 Mb Seeds 0 Leechs 0
  
http://www.torrenting.com/        :     Greatest Movie Tracker on The Net!!!
 
http://www.Torrenting.com          :     Once & For all ;)


               www . Torrenting . Com 

(((((((((((((= Enjoy =))))))))))))))))))))


english

Video
ID                               : 0
Format                           : MPEG-4 Visual
Format profile                   : Advanced Simple@L5
Format settings, BVOP            : 2
Format settings, QPel            : No
Format settings, GMC             : No warppoints
Format settings, Matrix          : Default (H.263)
Codec ID                         : XVID
Codec ID/Hint                    : XviD
Bit rate                         : 818 Kbps
Width                            : 640 pixels
Height                           : 272 pixels
Display aspect ratio             : 2.35:1
Frame rate                       : 25.000 fps
Color space                      : YUV
Chroma subsampling               : 4:2:0
Bit depth                        : 8 bits
Scan type                        : Progressive
Compression mode                 : Lossy
Bits/(Pixel*Frame)               : 0.188
Stream size                      : 589 MiB (84%)
Writing library                  : XviD 1.2.1 (UTC 2008-12-04)

Audio
ID                               : 1
Format                           : MPEG Audio
Format version                   : Version 1
Format profile                   : Layer 3
Mode                             : Joint stereo
Codec ID                         : 55
Codec ID/Hint                    : MP3
Bit rate mode                    : Variable
Bit rate                         : 144 Kbps
Channel(s)                       : 2 channels
Sampling rate                    : 48.0 KHz
Compression mode                 : Lossy
Stream size                      : 101 MiB (14%)
Alignment                        : Aligned on interleaves
Interleave, duration             : 24 ms (0.60 video frame)
Interleave, preload duration     : 480 ms
Writing library                  : LAME3.98 
Encoding settings                : -m j -V 4 -q 3 -lowpass 17.5 --abr 144		
FileSize
Crazy, Stupid, Love.[2011]DVDRip XviD-ExtraTorrentRG/Crazy, Stupid, Love.[2011]DVDRip XviD-ExtraTorrentRG.rar741.24 Mb
Crazy, Stupid, Love.[2011]DVDRip XviD-ExtraTorrentRG/Torrent downloaded from Extratorrent.com.txt48.00 b
Crazy, Stupid, Love.[2011]DVDRip XviD-ExtraTorrentRG/info.txt109.00 b
TrackerSeedsLeechsDownloaded
udp://tracker.openbittorrent.com:80/scrape001
http://exodus.1337x.org/scrape000
http://genesis.1337x.org:1337/scrape000
http://nemesis.1337x.org/scrape000
http://tracker.publicbt.com/scrape000
http://pow7.com/scrape000
http://10.rarbg.com/scrape000
http://tracker.torrentbay.to:6969/scrape000
Report this torrent
We will carefully monitor this report and react whenever possible.
Thanks for helping us in filtering out bad content and improving TorrentReactor for every other visitor!
Please login or register to be able to report torrents.

Your comment

Please Login or register to be able to add comments.

All comments

No one has added a comment yet. Be the first one.

Related torrents

Crazy Stupid Love 2011 DVDRip XviD ExtraTorrentRG, related to Crazy Stupid Love 2011 DVDRip XviD ExtraTorrentRG