Download Take Me Home Tonight 2011 DvDrip Eng FXG torrent torrent

Fake torrent

Take Me Home Tonight 2011 DvDrip Eng FXG torrent torrent

Total size: 890.93 Mb Seeds 0 Leechs 0
File:: Take Me Home Tonight[2011]DvDrip[Eng]-FXG

Video Source:: ....Team Serenity. Killin it, thx

Audio Source:: ....own, thx matey

Language::English

Genre::Comedy | Drama

IMDB::http://www.imdb.com/title/tt0810922/


It's the late 1980s, when Wall Street is riding high, and it seems as if the entire country is cashing in on the bumper profits. Disgusted with the materialism that surrounds him, Matt Franklin, a brilliant young MIT graduate, has walked out on his well-paid position at a local lab and taken a low-level job as a video clerk, much to his father Bill's consternation. And the crises keep piling up in Matt's life. His best buddy Barry has just gotten fired from his job, his brainy sister Wendy is getting hitched to her vapid boyfriend Kyle, and the gorgeous Tori Frederking, long-time object of Matt's unattainable adoration, is suddenly back in the picture. Now, on one wild, woolly and irresponsible evening, everything is coming to a head, with explosive results.


Specs::


General



Format : AVI

Format/Info : Audio Video Interleave

Duration : 1h 54mn

Overall bit rate : 1 761 Kbps

Writing application : VirtualDubMod 1.5.10.2 (build 2540/release)

Writing library : VirtualDubMod build 2540/release



Video

ID : 0

Format : MPEG-4 Visual

Format profile : Advanced Simple@L5

Format settings, BVOP : Yes

Format settings, QPel : No

Format settings, GMC : No warppoints

Format settings, Matrix : Default (H.263)

Muxing mode : Packed bitstream

Codec ID : XVID

Codec ID/Hint : XviD

Duration : 1h 54mn

Bit rate : 1 495 Kbps

Width : 720 pixels

Height : 306 pixels

Display aspect ratio : 2.35:1

Frame rate : 25.000 fps

Color space : YUV

Chroma subsampling : 4:2:0

Bit depth : 8 bits

Scan type : Progressive

Bits/(Pixel*Frame) : 0.271

Stream size : 1.16 GiB (85%)

Writing library : XviD 1.2.1 (UTC 2008-12-04)



Audio

ID : 1

Format : MPEG Audio

Format version : Version 1

Format profile : Layer 3

Codec ID : 55

Codec ID/Hint : MP3

Duration : 1h 54mn

Bit rate mode : Constant

Bit rate : 256 Kbps

Channel(s) : 2 channels

Sampling rate : 44.1 KHz

Stream size : 204 MiB (15%)

Alignment : Split accross interleaves

Interleave, duration : 40 ms (1.00 video frame)

Interleave, preload duration : 500 ms
FileSize
Demonoid.com.txt42.00 b
movies.nfo4.74 Kb
Take Me Home Tonight[2011]DvDrip[Eng]-FXG.avi890.86 Mb
[Eng][Subs].srt67.25 Kb
TrackerSeedsLeechsDownloaded
http://exodus.1337x.org/scrape000
http://genesis.1337x.org:1337/scrape000
http://tracker.istole.it:80/scrape000
http://tracker.torrentbox.com:2710/scrape000
http://tracker.sladinki007.net:6500/scrape000
http://tracker.prq.to/scrape000
http://tracker.publicbt.com/scrape000
http://tracker.openbittorrent.com:6969/scrape000
http://tracker.openbittorrent.com/scrape000
Report this torrent
We will carefully monitor this report and react whenever possible.
Thanks for helping us in filtering out bad content and improving TorrentReactor for every other visitor!
Please login or register to be able to report torrents.

Your comment

Please Login or register to be able to add comments.

All comments

No one has added a comment yet. Be the first one.

Related torrents

Take Me Home Tonight 2011 DvDrip Eng FXG torrent, related to Take Me Home Tonight 2011 DvDrip Eng FXG torrent