Download Just Go with It 2011 DVDRip XViD FRENCH Real Version torrent

Fake torrent

Just Go with It 2011 DVDRip XViD FRENCH Real Version torrent

Total size: 1.15 Gb Seeds 0 Leechs 0
Just Go with It 2011 DVDRip XViD FRENCH Real Version
::::::::::::::Enjoy:Another:Release:::::::::::::::




Video > Movies

File:: Just Go with It 2011 DVDRip XViD FRENCH[Real Version]

Video Source:: ....Team Serenity. Killin it, thx

Audio Source:: ....own, thx matey

IMDB Source::http://www.imdb.com/title/tt1564367/

Language::English


Following the death of his father, Britt Reid, heir to his father's large company,

teams up with his late dad's assistant Kato to become a masked crime fighting team.



Specs::



General



Format : AVI

Format/Info : Audio Video Interleave

Duration : 1h 51mn

Overall bit rate : 1 761 Kbps

Writing application : VirtualDubMod 1.5.10.2 (build 2540/release)

Writing library : VirtualDubMod build 2540/release

Guaranteed working : 100% movie


Video

ID : 0

Format : MPEG-4 Visual

Format profile : Advanced Simple@L5

Format settings, BVOP : Yes

Format settings, QPel : No

Format settings, GMC : No warppoints

Format settings, Matrix : Default (H.263)

Muxing mode : Packed bitstream

Duration : 1h 51mn

Bit rate : 1 495 Kbps

Width : 720 pixels

Height : 306 pixels

Display aspect ratio : 2.35:1

Frame rate : 25.000 fps

Color space : YUV

Chroma subsampling : 4:2:0

Bit depth : 8 bits

Scan type : Progressive

Bits/(Pixel*Frame) : 0.271

Stream size : 1.16 GiB (85%)




Audio

ID : 1

Format : MPEG Audio

Format version : Version 1

Format profile : Layer 3

Codec ID : 55

Codec ID/Hint : MP3

Duration : 1h 51mn

Bit rate mode : Constant

Bit rate : 256 Kbps

Channel(s) : 2 channels

Sampling rate : 44.1 KHz

Stream size : 204 MiB (15%)

Alignment : Split accross interleaves

Interleave, duration : 40 ms (1.00 video frame)

Interleave, preload duration : 500 ms


How To Get Your Maxspeed (uTorrent)

Torrent Client - Preferences - Bandwidth - Number of connections - Set aprox. 500 for each
Torrent Client - Preferences - BiTorrent - Protocol Encryption - Forced
Bandwidth Allocation - High (Set download/upload limit - Unlimited)
Stop Other Active Torrents - Start downloading and wait for connections.
Enjoy and Seed for at least 1:1 ratio. Don't forget to say thanks/leave reviews.
Greets to all actual/future p2p/scene QUALITY groups and affiliate websites.
Don't trust IMDb robot or bad ratings,always watch some trailers first.
Ignore stupid comments/fake/mislabeled/no-DVDrips/CAM/TS/RAR uploads.
Please spread this release/torrent to your friends/forums/etc.
If you need translation subs visit some subtitles sites.
Report if you see online streaming or other spam links.
Recommended movie player VLC PLAYER.

SCREENSHOTS:

http://postimage.org/image/2hf31iwuc/

http://postimage.org/image/ypj5084/

http://postimage.org/image/lhqcn43o/

http://postimage.org/image/21s37ouxw/

http://postimage.org/image/yxstqp0/


NOTES:: Brings you easy Movie Life As always, Enjoy




::Why Complain? Whats Free Is Free:: Be Happy


::We are always looking for friends with unreleased DVD's, Screeners, R5's, Audio, Cams, Silvers,



:::::::::::::::::::::::::::::::::::: Respect To :::::::::::::::::::::::::::::::::::::

::IMAGiNE,FLAWL3SS,Hive-CM8,DiGiTALiNK,Tranz,Vik,OneTwo,Joey,bob,& our friends on utn and PA::

"and to all of you who support us, Thank-You"
FileSize
Just Go with It 2011 DVDRip XViD FRENCH[Real Version].avi1.15 Gb
TrackerSeedsLeechsDownloaded
http://exodus.1337x.org/scrape000
http://genesis.1337x.org:1337/scrape000
http://tracker.istole.it:80/scrape000
http://tracker.torrentbox.com:2710/scrape000
http://tracker.sladinki007.net:6500/scrape000
http://tracker.prq.to/scrape000
http://tracker.publicbt.com/scrape000
http://tracker.openbittorrent.com:6969/scrape000
http://tracker.openbittorrent.com/scrape000
Report this torrent
We will carefully monitor this report and react whenever possible.
Thanks for helping us in filtering out bad content and improving TorrentReactor for every other visitor!
Please login or register to be able to report torrents.

Your comment

Please Login or register to be able to add comments.

All comments

No one has added a comment yet. Be the first one.

Related torrents

Just Go with It 2011 DVDRip XViD FRENCH Real Version, related to Just Go with It 2011 DVDRip XViD FRENCH Real Version