Download Annie torrent

Annie torrent

Total size: 1.47 Gb Seeds 183 Leechs 31
Annie
  • Direct Download
  • Torrent
    Annie
    You need a free client. We recommend BitLord
  • Category
  • Added
    on 2010-10-23 17:39:37
  • Hash
    1604F386C82E5D9ED9F125AE37FA32D6DBF54A90
  • Health
    85% Complete
  • Trackers
    14
  • Torrent downloaded
    73 times
[IMG]http://i52.tinypic.com/qxmp1k.jpg[/IMG]With: Aileen Quinn, Albert Finney en Carol BurnettIn the depths of the 1930's, Annie is a fiery young orphan girl who must live in a miserable orphanage run by the tyrannical Miss Hannigan. Her seemingly hopeless situation changes dramatically when she is selected to spend a short time at the residence of the wealthy munitions industrialist, Oliver Warbucks. Quickly, she charms the hearts of the household staff and even the seemingly cold-hearted Warbucks cannot help but learn to love this wonderful girl. He decides to help Annie find her long lost parents by offering a reward if they would come to him and prove their identity. However, Miss Hannigan, her evil brother, Rooster, and a female accomplice, plan to impersonate those people to get the reward for themselves which put Annie in great danger.http://www.imdb.com/title/tt0083564	General:Complete name                    : AnnieAnnie.aviFormat                           : AVIFormat/Info                      : Audio Video InterleaveFile size                        : 1.47 GiBDuration                         : 2h 2mnOverall bit rate                 : 1723 KbpsVideo:Format                           : MPEG-4 VisualFormat profile                   : Simple@L3Format settings, BVOP            : NoFormat settings, QPel            : NoFormat settings, GMC             : No warppointsFormat settings, Matrix          : Default (H.263)Codec ID                         : XVIDCodec ID/Hint                    : XviDDuration                         : 2h 2mnBit rate                         : 1520 KbpsWidth                            : 720 pixelsHeight                           : 400 pixelsDisplay aspect ratio             : 16:9Frame rate                       : 25.000 fpsColor space                      : YUVChroma subsampling               : 4:2:0Bit depth                        : 8 bitsScan type                        : ProgressiveBits/(Pixel*Frame)               : 0.211Stream size                      : 1.30 GiB (88%)Writing library                  : XviD 1.1.2 (UTC 2006-11-01)Audio:Format                           : AC-3Format/Info                      : Audio Coding 3Format profile                   : Dolby DigitalMode extension                   : CM (complete main)Codec ID                         : 2000Duration                         : 2h 2mnBit rate mode                    : ConstantBit rate                         : 192 KbpsChannel(s)                       : 2 channelsChannel positions                : Front: L RSampling rate                    : 48.0 KHzStream size                      : 168 MiB (11%)Alignment                        : Aligned on interleavesInterleave, duration             : 32 ms (0.80 video frame)Interleave, preload duration     : 96 ms
FileSize
Cover/0 Film-Terminal-Flyer org.JPG265.84 Kb
Cover/Annie Dutch.jpg2.42 Mb
Cover/Annie DVD.jpg215.51 Kb
Cover/Annie.jpg213.03 Kb
Cover/flyer2Lions.jpg366.50 Kb
Annie.avi1.47 Gb
Torrent downloaded from Demonoid.com.txt47.00 b
TrackerSeedsLeechsDownloaded
udp://tracker.openbittorrent.com:80/scrape971510
udp://tracker.publicbt.com:80/scrape861610
http://inferno.demonoid.com:3403/scrape000
http://exodus.1337x.org/scrape000
http://denis.stalker.h3q.com:6969/scrape000
http://nemesis.1337x.org/scrape000
http://tracker.publicbt.org/scrape000
http://genesis.1337x.org:1337/scrape000
http://tracker.publicbt.org:80/scrape000
http://tracker.openbittorrent.com:80/scrape000
http://tracker.publicbt.com:80/scrape000
http://tracker.openbittorrent.com/scrape000
http://tracker.publicbt.com/scrape000
http://tracker.publicbt.com:80/scrape 000
Report this torrent
We will carefully monitor this report and react whenever possible.
Thanks for helping us in filtering out bad content and improving TorrentReactor for every other visitor!
Please login or register to be able to report torrents.

Your comment

Please Login or register to be able to add comments.

All comments

No one has added a comment yet. Be the first one.

Related torrents

Annie, related to Annie