Main Tera Hero 2014 Hindi Movies SCamRip with Sample rDX

Main Tera Hero 2014 Hindi Movies SCamRip with Sample rDX

Total size: 704.04 Mb Seeds 7 Leechs 4
							
Main Tera Hero 2014 Hindi Movies SCamRip with Sample ~ ☻rDX☻Screen Shotshttp://moviesreview.cu.cc/2014/4/MainTeraHero/1.htmlhttp://moviesreview.cu.cc/2014/4/MainTeraHero/2.htmlhttp://moviesreview.cu.cc/2014/4/MainTeraHero/3.htmlhttp://moviesreview.cu.cc/2014/4/MainTeraHero/4.htmlhttp://moviesreview.cu.cc/2014/4/MainTeraHero/5.htmlhttp://moviesreview.cu.cc/2014/4/MainTeraHero/6.htmlhttp://moviesreview.cu.cc/2014/4/MainTeraHero/7.htmlhttp://moviesreview.cu.cc/2014/4/MainTeraHero/8.htmlhttp://moviesreview.cu.cc/2014/4/MainTeraHero/9.htmlhttp://moviesreview.cu.cc/2014/4/MainTeraHero/10.htmlAll rDX torrents are Seeding From the 1Gbps Seedbox 24X7
Format : Matroska
Format version : Version 4 / Version 2
File size : 696 MiB
Duration : 2h 1mn
Overall bit rate mode : Variable
Overall bit rate : 800 Kbps
Movie name : Main Tera Hero 2014 Hindi Movies SCamRip ~ ☻rDX☻
Video
ID : 1
Format : MPEG Video
Format version : Version 2
Format profile : Main@Main
Format settings, BVOP : No
Format settings, Matrix : Custom
Codec ID : V_MPEG2
Codec ID/Info : MPEG 1 or 2 Video
Duration : 2h 1mn
Bit rate mode : Variable
Bit rate : 720 Kbps
Maximum bit rate : 8 000 Kbps
Width : 352 pixels
Height : 288 pixels
Display aspect ratio : 4:3
Frame rate mode : Constant
Frame rate : 25.000 fps
Standard : NTSC
Color space : YUV
Chroma subsampling : 4:2:0
Bit depth : 8 bits
Compression mode : Lossy
Bits/(Pixel*Frame) : 0.284
Stream size : 626 MiB (90%)
Alignment : encoded by TMPGEnc Video Mastering Works 5 Version. 5.0.5.32
Title : TMPGEnc
Writing application : Video Mastering Works 5 Version. 5.0.5.32
Writing library : TMPGEnc Video Mastering Works 5 Version. 5.0.5.32
Default : Yes
Forced : No
Audio
ID : 2
Format : MPEG Audio
Format version : Version 1
Format profile : Layer 2
Codec ID : A_MPEG/L2
Codec ID/Hint : MP2
Duration : 2h 1mn
Bit rate mode : Constant
Bit rate : 64.0 Kbps
Channel(s) : 2 channels
Sampling rate : 48.0 KHz
Compression mode : Lossy
Stream size : 55.7 MiB (8%)
Title : ~ ☻rDX☻
Default : Yes
Forced : No
						
FileSize
Main Tera Hero 2014 Hindi Movies SCamRip with Sample ~ ☻rDX☻/Main Tera Hero 2014 Hindi Movies SCamRip ~ ☻rDX☻.mkv696.04 Mb
Main Tera Hero 2014 Hindi Movies SCamRip with Sample ~ ☻rDX☻/Sample ~ Main Tera Hero 2014 Hindi Movies SCamRip ~ ☻rDX☻.mkv8.00 Mb
TrackerSeedsLeechsDownloaded
udp://tracker.istole.it:80/scrape3210
udp://9.rarbg.com:2710/scrape210
http://fr33dom.h33t.com:3310/scrape000
http://tracker.ex.ua/scrape210
Report this torrent
We will carefully monitor this report and react whenever possible.
Thanks for helping us in filtering out bad content and improving TorrentReactor for every other visitor!
Please login or register to be able to report torrents.

Your comment

Please Login or register to be able to add comments.

All comments

No one has added a comment yet. Be the first one.

Related movies

Search for full movies Main Tera Hero 2014 Hindi Movies SCamRip with Sample rDX, related to Main Tera Hero 2014 Hindi Movies SCamRip with Sample rDX