Gang Of Ghosts 2014 Hindi Movies SCamRip with Sample rDX

Gang Of Ghosts 2014 Hindi Movies SCamRip with Sample rDX

Total size: 704.78 Mb Seeds 9 Leechs 20
							
Gang Of Ghosts 2014 Hindi Movies SCamRip with Sample ~ ☻rDX☻Screen Shotshttp://moviesreview.cu.cc/2014/3/GangOfGhosts/1.htmlhttp://moviesreview.cu.cc/2014/3/GangOfGhosts/2.htmlhttp://moviesreview.cu.cc/2014/3/GangOfGhosts/3.htmlhttp://moviesreview.cu.cc/2014/3/GangOfGhosts/4.htmlhttp://moviesreview.cu.cc/2014/3/GangOfGhosts/5.htmlhttp://moviesreview.cu.cc/2014/3/GangOfGhosts/6.htmlhttp://moviesreview.cu.cc/2014/3/GangOfGhosts/7.htmlhttp://moviesreview.cu.cc/2014/3/GangOfGhosts/8.htmlhttp://moviesreview.cu.cc/2014/3/GangOfGhosts/9.htmlhttp://moviesreview.cu.cc/2014/3/GangOfGhosts/10.htmlAll rDX torrents are Seeding From the 1Gbps Seedbox 24X7
Format : Matroska
Format version : Version 4 / Version 2
File size : 697 MiB
Duration : 2h 2mn
Overall bit rate mode : Variable
Overall bit rate : 794 Kbps
Movie name : Gang Of Ghosts 2014 Hindi Movies SCamRip ~ rDX ~
Video
ID : 1
Format : MPEG Video
Format version : Version 2
Format profile : Main@Main
Format settings, BVOP : No
Format settings, Matrix : Default
Codec ID : V_MPEG2
Codec ID/Info : MPEG 1 or 2 Video
Duration : 2h 2mn
Bit rate mode : Variable
Bit rate : 650 Kbps
Maximum bit rate : 9 672 Kbps
Width : 352 pixels
Height : 288 pixels
Display aspect ratio : 4:3
Frame rate mode : Constant
Frame rate : 25.000 fps
Standard : PAL
Color space : YUV
Chroma subsampling : 4:2:0
Bit depth : 8 bits
Compression mode : Lossy
Bits/(Pixel*Frame) : 0.257
Stream size : 571 MiB (82%)
Title : ~ rDX ~
Default : Yes
Forced : No
Audio
ID : 2
Format : MPEG Audio
Format version : Version 1
Format profile : Layer 2
Codec ID : A_MPEG/L2
Codec ID/Hint : MP2
Duration : 2h 2mn
Bit rate mode : Constant
Bit rate : 128 Kbps
Channel(s) : 2 channels
Sampling rate : 48.0 KHz
Compression mode : Lossy
Stream size : 112 MiB (16%)
Title : ~ rDX ~
Default : Yes
Forced : No
						
FileSize
Gang Of Ghosts 2014 Hindi Movies SCamRip with Sample ~ ☻rDX☻/Gang Of Ghosts 2014 Hindi Movies SCamRip ~ ☻rDX☻.mkv696.76 Mb
Gang Of Ghosts 2014 Hindi Movies SCamRip with Sample ~ ☻rDX☻/Sample ~ Gang Of Ghosts 2014 Hindi Movies SCamRip ~ ☻rDX☻ ~.mkv8.02 Mb
TrackerSeedsLeechsDownloaded
udp://tracker.publicbt.com:80/scrape1210
udp://tracker.openbittorrent.com:80/scrape2410
udp://tracker.istole.it:80/scrape1510
udp://9.rarbg.com:2710/scrape359
udp://11.rarbg.com:80/scrape2410
http://fr33dom.h33t.com:3310/scrape000
http://tracker.ex.ua/scrape000
Report this torrent
We will carefully monitor this report and react whenever possible.
Thanks for helping us in filtering out bad content and improving TorrentReactor for every other visitor!
Please login or register to be able to report torrents.

Your comment

Please Login or register to be able to add comments.

All comments

No one has added a comment yet. Be the first one.

Related movies

Search for full movies Gang Of Ghosts 2014 Hindi Movies SCamRip with Sample rDX, related to Gang Of Ghosts 2014 Hindi Movies SCamRip with Sample rDX