Download 47 Ronin (2013) DVDRip XviD-MAXSPEED torrent

Verified torrent

47 Ronin (2013) DVDRip XviD-MAXSPEED torrent

Total size: 1.58 Gb Seeds 4805 Leechs 945
47 Ronin (2013) DVDRip XviD-MAXSPEED
							http://www.torentz.3xforum.ro/post/3396/1/47_Ronin_2013_DVDRip_XviD-MAXSPEED/
Screens:
ScreenCaps:47 Ronin (2013) DVDRip XviD-MAXSPEED
Format : AVI
Format/Info : Audio Video Interleave
Format profile : OpenDML
Format settings : rec
File size : 1.58 GiB
Duration : 1h 58mn
Overall bit rate : 1 905 Kbps
Writing application : VirtualDubMod 1.5.10.2 (build 2542/release)
Writing library : VirtualDubMod build 2542/release
Original source form : MAX TORRENTZ
Copyright : SIGISMUNT

Video
ID : 0
Format : MPEG-4 Visual
Format profile : Advanced Simple@L5
Format settings, BVOP : 2
Format settings, QPel : No
Format settings, GMC : No warppoints
Format settings, Matrix : Custom
Codec ID : XVID
Codec ID/Hint : XviD
Duration : 1h 58mn
Bit rate : 1 515 Kbps
Width : 720 pixels
Height : 304 pixels
Display aspect ratio : 2.35:1
Frame rate : 23.976 fps
Color space : YUV
Chroma subsampling : 4:2:0
Bit depth : 8 bits
Scan type : Progressive
Compression mode : Lossy
Bits/(Pixel*Frame) : 0.289
Stream size : 1.25 GiB (80%)
Writing library : XviD 1.2.1 (UTC 2008-12-04)

Audio
ID : 1
Format : AC-3
Format/Info : Audio Coding 3
Codec ID : 2000
Duration : 1h 58mn
Bit rate mode : Constant
Bit rate : 384 Kbps
Channel(s) : 6 channels
Sampling rate : 48.0 KHz
Compression mode : Lossy
Stream size : 326 MiB (20%)
Alignment : Aligned on interleaves

Source: WEBDL DVD (perfect a/v/sync quality,sample included)
This torrent is not seedbox supported,please seed it to the MAX

Note: If you have something to offer as early releases,seedboxes,
contact us on http://torentz.3xforum.ro or http://torentz.tk

How To Get Your MAXSPEED (uTorrent)

Torrent Client - Preferences - Bandwidth - Number of connections - Set aprox. 500 for each
Torrent Client - Preferences - BiTorrent - Protocol Encryption - Forced
Bandwidth Allocation - High (Set download/upload limit - Unlimited)
Stop Other Active Torrents - Start downloading and wait for connections.
Enjoy and Seed for at least 1:1 ratio. Don't forget to say thanks/leave reviews.
If screens/Caps image host is dead googlesearch "release name"+"screens" or "sample".
Greets to all actual/future p2p/scene QUALITY groups and affiliate websites.
Don't trust IMDb robot or bad ratings,always watch some trailers first.
Ignore stupid comments/fake/mislabeled/no-DVDrips/CAM/TS/RAR uploads.
Please spread this release/torrent to your friends/forums/etc.
If you need translation subs visit some subtitles sites.
Report if you see online streaming or other spam links.
Recommended movie player VLC PLAYER.
						

47 Ronin (2013) DVDRip XviD-MAXSPEED

47 Ronin (2013) DVDRip XviD-MAXSPEED

47 Ronin (2013) DVDRip XviD-MAXSPEED

47 Ronin (2013) DVDRip XviD-MAXSPEED

FileSize
47 Ronin (2013) DVDRip XviD-MAXSPEED/47 Ronin (2013) DVDRip XviD-MAXSPEED www.torentz.3xforum.ro.avi1.58 Gb
47 Ronin (2013) DVDRip XviD-MAXSPEED/sample.avi4.32 Mb
47 Ronin (2013) DVDRip XviD-MAXSPEED/screencaps.jpeg529.83 Kb
47 Ronin (2013) DVDRip XviD-MAXSPEED/47 Ronin (2013) DVDRip XviD-MAXSPEED.nfo2.98 Kb
47 Ronin (2013) DVDRip XviD-MAXSPEED/Torrent downloaded from Kickass.to.txt50.00 b
47 Ronin (2013) DVDRip XviD-MAXSPEED/Torrent Downloaded From ExtraTorrent.cc.txt39.00 b
47 Ronin (2013) DVDRip XviD-MAXSPEED/Torrent downloaded from Rarbg.com.txt33.00 b
47 Ronin (2013) DVDRip XviD-MAXSPEED/Torrent downloaded from h33t.to.txt31.00 b
TrackerSeedsLeechsDownloaded
udp://tracker.openbittorrent.com:80/scrape4326810
udp://tracker.publicbt.com:80/scrape52010210
udp://tracker.istole.it:80/scrape6589710
udp://tracker.coppersurfer.tk:6969/scrape2268213062
udp://bt.rghost.net:80/scrape51710210
udp://tracker.token.ro:80/scrape51710210
udp://tracker.zond.org:80/scrape51710210
udp://open.demonii.com:1337/scrape643971599
udp://9.rarbg.com:2710/scrape22381222166
udp://exodus.desync.com:6969/scrape35100
udp://ipv4.tracker.harry.lu:80/scrape51710210
http://tracker.thepiratebay.org/scrape000
Report this torrent
We will carefully monitor this report and react whenever possible.
Thanks for helping us in filtering out bad content and improving TorrentReactor for every other visitor!
Please login or register to be able to report torrents.

Your comment
Please Login or register to be able to add comments.
All comments

No one has added a comment yet. Be the first one.

Related torrents
47 Ronin (2013) DVDRip XviD-MAXSPEED, related to 47 Ronin (2013) DVDRip XviD-MAXSPEED