Non Stop 2014 English Movies HDSCamRip x264 AC3 Audio Cleaned with Sample rDX

Non Stop 2014 English Movies HDSCamRip x264 AC3 Audio Cleaned with Sample rDX

Total size: 832.46 Mb Seeds 42 Leechs 10
							
Non-Stop 2014 English Movies HDSCamRip x264 AC3 Audio Cleaned with Sample ~ ☻rDX☻Screen Shotshttp://moviesreview.cu.cc/2014/3/NonStop/1.htmlhttp://moviesreview.cu.cc/2014/3/NonStop/2.htmlhttp://moviesreview.cu.cc/2014/3/NonStop/3.htmlhttp://moviesreview.cu.cc/2014/3/NonStop/4.htmlhttp://moviesreview.cu.cc/2014/3/NonStop/5.htmlhttp://moviesreview.cu.cc/2014/3/NonStop/6.htmlhttp://moviesreview.cu.cc/2014/3/NonStop/7.htmlhttp://moviesreview.cu.cc/2014/3/NonStop/8.htmlhttp://moviesreview.cu.cc/2014/3/NonStop/9.htmlhttp://moviesreview.cu.cc/2014/3/NonStop/10.htmlAll rDX torrents are Seeding From the 1Gbps Seedbox 24X7
Format : Matroska
Format version : Version 4 / Version 2
File size : 820 MiB
Duration : 1h 39mn
Overall bit rate mode : Variable
Overall bit rate : 1 148 Kbps
Movie name : Non-Stop 2014 English Movies HDSCamRip x264 AC3 Audio Cleaned ~ rDX ~
Video
ID : 1
Format : AVC
Format/Info : Advanced Video Codec
Format profile : High@L4.1
Format settings, CABAC : Yes
Format settings, ReFrames : 3 frames
Codec ID : V_MPEG4/ISO/AVC
Duration : 1h 39mn
Bit rate mode : Variable
Bit rate : 933 Kbps
Maximum bit rate : 40.0 Mbps
Width : 720 pixels
Height : 320 pixels
Display aspect ratio : 2.25:1
Frame rate mode : Constant
Frame rate : 25.000 fps
Color space : YUV
Chroma subsampling : 4:2:0
Bit depth : 8 bits
Scan type : Progressive
Bits/(Pixel*Frame) : 0.162
Stream size : 667 MiB (81%)
Title : ~ rDX ~
Writing library : x264
Default : Yes
Forced : No
Color primaries : BT.709
Transfer characteristics : BT.709
Matrix coefficients : BT.709
Audio
ID : 2
Format : AC-3
Format/Info : Audio Coding 3
Mode extension : CM (complete main)
Format settings, Endianness : Big
Codec ID : A_AC3
Duration : 1h 39mn
Bit rate mode : Constant
Bit rate : 192 Kbps
Channel(s) : 2 channels
Channel positions : Front: L R
Sampling rate : 48.0 KHz
Bit depth : 16 bits
Compression mode : Lossy
Stream size : 137 MiB (17%)
Title : ~ rDX ~
Default : Yes
Forced : No
						
FileSize
Non-Stop 2014 English Movies HDSCamRip x264 AC3 Audio Cleaned with Sample ~ ☻rDX☻/Non-Stop 2014 English Movies HDSCamRip x264 AC3 Audio Cleaned ~ ☻rDX☻.mkv820.44 Mb
Non-Stop 2014 English Movies HDSCamRip x264 AC3 Audio Cleaned with Sample ~ ☻rDX☻/Sample ~ Non-Stop 2014 English Movies HDSCamRip x264 AC3 Audio Cleaned ~ ☻rDX☻.mkv12.01 Mb
TrackerSeedsLeechsDownloaded
udp://tracker.publicbt.com:80/scrape720
udp://tracker.istole.it:80/scrape13310
udp://9.rarbg.com:2710/scrape103656
http://fr33dom.h33t.com:3310/scrape000
http://tracker.ex.ua/scrape1220
Report this torrent
We will carefully monitor this report and react whenever possible.
Thanks for helping us in filtering out bad content and improving TorrentReactor for every other visitor!
Please login or register to be able to report torrents.

Your comment

Please Login or register to be able to add comments.

All comments

No one has added a comment yet. Be the first one.

Related movies

Search for full movies Non Stop 2014 English Movies HDSCamRip x264 AC3 Audio Cleaned with Sample rDX, related to Non Stop 2014 English Movies HDSCamRip x264 AC3 Audio Cleaned with Sample rDX