Obhishopto Nighty 2014 SCamRip Bengali Movie

Obhishopto Nighty 2014 SCamRip Bengali Movie

Total size: 700.10 Mb Seeds 35 Leechs 5
Paoli Dam
Indraneil Sengupta
Parambrata Chatterjee
Tanusree Chakraborty
Rahul Banerjee
Neel Mukherjee
Bhaskar Banerjee
Biswanath Basu
Locket Chatterjee
Mir Afsar Ali
Priyanka Sarkar
Laboni Sarkar
Jojo
Tanima Sen
Sudeshna Roy
Dev in a cameo appearance

In the year 1985, Monica (Paoli), a sensuous bar-singer falls in love with Raja (Indraneil), who hails from an aristocratic family. After spending a steamy weekend of love and sex, comes the dhokha - Raja ditches Monica and gets married to the girl of his parents' choice



General
Format : MPEG-PS
File size : 700 MiB
Duration : 1h 56mn
Overall bit rate mode : Variable
Overall bit rate : 839 Kbps

Video
ID : 224 (0xE0)
Format : MPEG Video
Format version : Version 2
Format profile : Main@Main
Format settings, BVOP : Yes
Format settings, Matrix : Custom
Format settings, GOP : Variable
Duration : 1h 56mn
Bit rate mode : Variable
Bit rate : 731 Kbps
Width : 352 pixels
Height : 288 pixels
Display aspect ratio : 4:3
Frame rate : 29.970 fps
Standard : PAL
Color space : YUV
Chroma subsampling : 4:2:0
Bit depth : 8 bits
Scan type : Progressive
Compression mode : Lossy
Bits/(Pixel*Frame) : 0.241
Stream size : 606 MiB (87%)

Audio
ID : 192 (0xC0)
Format : MPEG Audio
Format version : Version 1
Format profile : Layer 2
Duration : 1h 56mn
Bit rate mode : Constant
Bit rate : 96.0 Kbps
Channel(s) : 2 channels
Sampling rate : 48.0 KHz
Compression mode : Lossy
Stream size : 80.1 MiB (11%)		
FileSize
Obhishopto Nighty [2014] SCamRip [Bengali Movie]/Obhishopto Nighty (2014) (Bengali Movie) - 1CD - TVRip.mpg699.91 Mb
Obhishopto Nighty [2014] SCamRip [Bengali Movie]/FlashRG.png191.82 Kb
Obhishopto Nighty [2014] SCamRip [Bengali Movie]/Movie.txt1.88 Kb
Obhishopto Nighty [2014] SCamRip [Bengali Movie]/Torrent downloaded from TorReviver torrents at BTS.to.txt122.00 b
Obhishopto Nighty [2014] SCamRip [Bengali Movie]/Torrent downloaded from AhaShare.com.txt59.00 b
Obhishopto Nighty [2014] SCamRip [Bengali Movie]/Torrent downloaded from Flashtorrents.org.txt41.00 b
Obhishopto Nighty [2014] SCamRip [Bengali Movie]/Torrent downloaded from Thepiratebay.sx.txt39.00 b
Obhishopto Nighty [2014] SCamRip [Bengali Movie]/Torrent downloaded from Aletorrenty.pl.txt38.00 b
Obhishopto Nighty [2014] SCamRip [Bengali Movie]/Torrent downloaded from Digtorrent.org.txt38.00 b
Obhishopto Nighty [2014] SCamRip [Bengali Movie]/Torrent downloaded from Fenopy.se.txt37.00 b
Obhishopto Nighty [2014] SCamRip [Bengali Movie]/Torrent downloaded from Divxhunt.me.txt36.00 b
Obhishopto Nighty [2014] SCamRip [Bengali Movie]/Torrent downloaded from Kickass.to.txt34.00 b
Obhishopto Nighty [2014] SCamRip [Bengali Movie]/Torrent downloaded from 1337x.org.txt33.00 b
Obhishopto Nighty [2014] SCamRip [Bengali Movie]/Torrent downloaded from H33t.to.txt31.00 b
TrackerSeedsLeechsDownloaded
udp://tracker.openbittorrent.com:80/scrape7010
udp://tracker.istole.it:80/scrape6110
udp://tracker.publicbt.com:80/scrape7010
udp://tracker.yify-torrents.com:80/scrape4210
udp://tracker.token.ro:80/scrape7010
http://tracker.thepiratebay.org/scrape000
http://flashtorrents.org/scrape.php000
http://torrent.gresille.org/scrape4218
Report this torrent
We will carefully monitor this report and react whenever possible.
Thanks for helping us in filtering out bad content and improving TorrentReactor for every other visitor!
Please login or register to be able to report torrents.

Your comment

Please Login or register to be able to add comments.

All comments

No one has added a comment yet. Be the first one.

Related movies

Search for full movies Obhishopto Nighty 2014 SCamRip Bengali Movie, related to Obhishopto Nighty 2014 SCamRip Bengali Movie