RoboCop 2014 NEW CAM PL SUB READNFO x264 AAC LawAbidingCitizen

RoboCop 2014 NEW CAM PL SUB READNFO x264 AAC LawAbidingCitizen

Total size: 1.14 Gb
Removed by the request of copyright owner

RoboCop 2014 NEW CAM PL SUB READNFO x264 AAC LawAbidingCitizen
  • Category
  • Added
    on 2014-02-15 02:51:03
  • Hash
    b78350ad4969f11b08bd90edc5ad69d38869bfab
http://www.imdb.com/title/tt1234721/
In 2028 Detroit, when Alex Murphy (Joel Kinnaman) - a loving husband, father and good cop - is critically injured in the line of duty, the multinational conglomerate OmniCorp sees their chance for a part-man, part-robot police officer.
Director: José Padilha
Writers: Joshua Zetumer (screenplay), Edward Neumeier
Stars: Joel Kinnaman, Gary Oldman, Michael Keaton
Genres: Action | Crime | Sci-Fi | Thriller
Country: USA
Language: English
General
Complete name : RoboCop 2014 NEW CAM PL SUB READNFO x264 AAC-LawAbidingCitizen.mp4
Format : MPEG-4
Format profile : Base Media
Codec ID : isom
File size : 1.12 GiB
Duration : 1h 50mn
Overall bit rate mode : Variable
Overall bit rate : 1 455 Kbps
Encoded date : UTC 2014-02-14 08:50:06
Tagged date : UTC 2014-02-14 08:50:06
Video
ID : 1
Format : AVC
Format/Info : Advanced Video Codec
Format profile : 
/*  */

Format settings, CABAC : Yes
Format settings, ReFrames : 3 frames
Codec ID : avc1
Codec ID/Info : Advanced Video Coding
Duration : 1h 50mn
Bit rate mode : Variable
Bit rate : 1 288 Kbps
Maximum bit rate : 40.0 Mbps
Width : 642 pixels
Height : 338 pixels
Display aspect ratio : 1.899
Frame rate mode : Constant
Frame rate : 49.916 fps
Color space : YUV
Chroma subsampling : 4:2:0
Bit depth : 8 bits
Scan type : Progressive
Bits/(Pixel*Frame) : 0.119
Stream size : 1 014 MiB (89%)
Writing library : x264 core 142 r2389 956c8d8
Audio
ID : 2
Format : AAC
Format/Info : Advanced Audio Codec
Format profile : LC
Codec ID : 40
Duration : 1h 50mn
Bit rate mode : Variable
Bit rate : 160 Kbps
Maximum bit rate : 261 Kbps
Channel(s) : 2 channels
Channel positions : Front: L R
Sampling rate : 44.1 KHz
Compression mode : Lossy
Stream size : 126 MiB (11%)
Language : English
Encoded date : UTC 2014-02-14 08:50:42
Tagged date : UTC 2014-02-14 08:50:47
FileSize
RoboCop 2014 NEW CAM PL SUB READNFO x264 AAC-LawAbidingCitizen/RoboCop 2014 NEW CAM PL SUB READNFO x264 AAC-LawAbidingCitizen.mp41.12 Gb
RoboCop 2014 NEW CAM PL SUB READNFO x264 AAC-LawAbidingCitizen/Sample.mp419.00 Mb
RoboCop 2014 NEW CAM PL SUB READNFO x264 AAC-LawAbidingCitizen/Torrent Downloaded From ExtraTorrent.cc.txt338.00 b
RoboCop 2014 NEW CAM PL SUB READNFO x264 AAC-LawAbidingCitizen/robo.nfo4.26 Kb
TrackerSeedsLeechsDownloaded
udp://tracker.publicbt.com:80/scrape6110
udp://tracker.openbittorrent.com:80/scrape6010
Search for full movies Robocop 1987 REMASTERED DC 720p BluRay 800MB ShAaNiG com mkv, related to Robocop 1987 REMASTERED DC 720p BluRay 800MB ShAaNiG com mkv