Download Heartless 2014 Hindi Movies SCamRip with Sample ~ ☻rDX☻ torrent

Verified torrent

Heartless 2014 Hindi Movies SCamRip with Sample ~ ☻rDX☻ torrent

Total size: 703.32 Mb Seeds 9 Leechs 9
Heartless 2014 Hindi Movies SCamRip with Sample ~ ☻rDX☻
Heartless 2014 Hindi Movies SCamRip with Sample ~ ☻rDX☻
Please check SCREEN SHOTS first :http://moviesreview.cu.cc/2014/2/Heartless/1.htmlhttp://moviesreview.cu.cc/2014/2/Heartless/2.htmlhttp://moviesreview.cu.cc/2014/2/Heartless/3.htmlhttp://moviesreview.cu.cc/2014/2/Heartless/4.htmlhttp://moviesreview.cu.cc/2014/2/Heartless/5.htmlhttp://moviesreview.cu.cc/2014/2/Heartless/6.htmlhttp://moviesreview.cu.cc/2014/2/Heartless/7.htmlhttp://moviesreview.cu.cc/2014/2/Heartless/8.htmlhttp://moviesreview.cu.cc/2014/2/Heartless/9.htmlhttp://moviesreview.cu.cc/2014/2/Heartless/10.html
All rDX torrents are Seeding From the 1Gbps Seedbox 24X7
Format : Matroska
Format version : Version 4 / Version 2
File size : 696 MiB
Duration : 1h 52mn
Overall bit rate mode : Variable
Overall bit rate : 866 Kbps
Movie name : Heartless 2014 Hindi Movies CamRip ~ rDX ~
Video
ID : 1
Format : MPEG Video
Format version : Version 2
Format profile : Main@Main
Format settings, BVOP : No
Format settings, Matrix : Default
Codec ID : V_MPEG2
Codec ID/Info : MPEG 1 or 2 Video
Duration : 1h 52mn
Bit rate mode : Variable
Bit rate : 657 Kbps
Maximum bit rate : 9 016 Kbps
Width : 352 pixels
Height : 288 pixels
Display aspect ratio : 4:3
Frame rate mode : Constant
Frame rate : 25.000 fps
Standard : PAL
Color space : YUV
Chroma subsampling : 4:2:0
Bit depth : 8 bits
Compression mode : Lossy
Bits/(Pixel*Frame) : 0.259
Stream size : 528 MiB (76%)
Default : Yes
Forced : No
Audio
ID : 2
Format : AC-3
Format/Info : Audio Coding 3
Mode extension : CM (complete main)
Format settings, Endianness : Big
Codec ID : A_AC3
Duration : 1h 52mn
Bit rate mode : Constant
Bit rate : 192 Kbps
Channel(s) : 2 channels
Channel positions : Front: L R
Sampling rate : 48.0 KHz
Bit depth : 16 bits
Compression mode : Lossy
Stream size : 154 MiB (22%)
Default : Yes
Forced

Heartless 2014 Hindi Movies SCamRip with Sample ~ ☻rDX☻

Heartless 2014 Hindi Movies SCamRip with Sample ~ ☻rDX☻

Heartless 2014 Hindi Movies SCamRip with Sample ~ ☻rDX☻

Heartless 2014 Hindi Movies SCamRip with Sample ~ ☻rDX☻

FileSize
Heartless 2014 Hindi Movies SCamRip with Sample ~ ☻rDX☻/Heartless 2014 Hindi Movies SCamRip ~ ☻rDX☻.mkv696.27 Mb
Heartless 2014 Hindi Movies SCamRip with Sample ~ ☻rDX☻/Sample ~ Heartless 2014 Hindi Movies SCamRip ~ ☻rDX☻.mkv7.05 Mb
TrackerSeedsLeechsDownloaded
udp://tracker.publicbt.com:80/scrape1210
udp://tracker.openbittorrent.com:80/scrape3210
udp://11.rarbg.com:80/scrape3210
udp://9.rarbg.com:2710/scrape233441
http://fr33dom.h33t.com:3310/scrape000
http://tracker.ex.ua/scrape000
Report this torrent
We will carefully monitor this report and react whenever possible.
Thanks for helping us in filtering out bad content and improving TorrentReactor for every other visitor!
Please login or register to be able to report torrents.

Your comment
Please Login or register to be able to add comments.
All comments

No one has added a comment yet. Be the first one.

Related torrents
Heartless 2014 Hindi Movies SCamRip with Sample ~ ☻rDX☻, related to Heartless 2014 Hindi Movies SCamRip with Sample ~ ☻rDX☻