Will.I.Am.ft.Miley.Cyrus-Feelin.Myself.HDTV.1080p-shadowCopy torrent

Total size: 123.29 Mb Seeds 10 Leechs 0
Will.I.Am.ft.Miley.Cyrus-Feelin.Myself.HDTV.1080p-shadowCopy
Format : MPEG-4
Format profile : Base Media
Codec ID : isom
File size : 123 MiB
Duration : 4mn 7s
Overall bit rate : 4 172 Kbps
Writing application : Lavf54.63.104
Video
ID : 1
Format : AVC
Format/Info : Advanced Video Codec
Format profile : 
/*  */

Format settings, CABAC : Yes
Format settings, ReFrames : 2 frames
Codec ID : avc1
Codec ID/Info : Advanced Video Coding
Duration : 4mn 7s
Bit rate : 4 000 Kbps
Width : 1 920 pixels
Height : 1 080 pixels
Display aspect ratio : 16:9
Frame rate mode : Variable
Frame rate : 25.000 fps
Minimum frame rate : 12.500 fps
Maximum frame rate : 25.000 fps
Color space : YUV
Chroma subsampling : 4:2:0
Bit depth : 8 bits
Scan type : Progressive
Bits/(Pixel*Frame) : 0.077
Stream size : 118 MiB (96%)
Writing library : x264 core 130 r2273 b3065e6
Encoding settings : cabac=1 / ref=2 / deblock=1:0:0 / analyse=0x3:0x113 / me=hex / subme=7 / psy=1 / psy_rd=1.00:0.00 / mixed_ref=1 / me_range=16 / chroma_me=1 / trellis=1 / 8x8dct=1 / cqm=0 / deadzone=21,11 / fast_pskip=1 / chroma_qp_offset=-2 / threads=4 / lookahead_threads=1 / sliced_threads=0 / nr=0 / decimate=1 / interlaced=0 / bluray_compat=0 / constrained_intra=0 / bframes=3 / b_pyramid=0 / b_adapt=1 / b_bias=0 / direct=1 / weightb=1 / open_gop=0 / weightp=2 / keyint=250 / keyint_min=25 / scenecut=40 / intra_refresh=0 / rc_lookahead=40 / rc=2pass / mbtree=1 / bitrate=4000 / ratetol=1.0 / qcomp=0.60 / qpmin=0 / qpmax=69 / qpstep=4 / cplxblur=20.0 / qblur=0.5 / vbv_maxrate=17500 / vbv_bufsize=17500 / nal_hrd=none / ip_ratio=1.40 / aq=1:1.00
Color primaries : BT.709
Transfer characteristics : BT.709
Matrix coefficients : BT.709
Audio
ID : 2
Format : AAC
Format/Info : Advanced Audio Codec
Format profile : LC
Codec ID : 40
Duration : 4mn 7s
Bit rate mode : Constant
Bit rate : 160 Kbps
Channel(s) : 2 channels
Channel positions : Front: L R
Sampling rate : 48.0 KHz
Compression mode : Lossy
Stream size : 4.73 MiB (4%)
Language : En
FileSize
Will.I.Am.ft.Miley.Cyrus-Feelin.Myself.HDTV.1080p-shadowCopy/Will.I.Am.ft.Miley.Cyrus-Feelin.Myself.HDTV.1080p-shadowCopy.mp4123.29 Mb
Will.I.Am.ft.Miley.Cyrus-Feelin.Myself.HDTV.1080p-shadowCopy/Will.I.Am.ft.Miley.Cyrus-Feelin.Myself.HDTV.1080p-shadowCopy.nfo3.89 Kb
TrackerSeedsLeechsDownloaded
udp://tracker.publicbt.com:80/scrape4010
udp://tracker.openbittorrent.com:80/scrape6010
Report this torrent
We will carefully monitor this report and react whenever possible.
Thanks for helping us in filtering out bad content and improving TorrentReactor for every other visitor!
Please login or register to be able to report torrents.

Your comment
Please Login or register to be able to add comments.
All comments

No one has added a comment yet. Be the first one.

Related torrents
Will.I.Am.ft.Miley.Cyrus-Feelin.Myself.HDTV.1080p-shadowCopy, related to Will.I.Am.ft.Miley.Cyrus-Feelin.Myself.HDTV.1080p-shadowCopy