One By Two 2014 Hindi Movies HDSCamRip with Sample rDX

One By Two 2014 Hindi Movies HDSCamRip with Sample rDX

Total size: 702.90 Mb
Removed by the request of copyright owner

One By Two 2014 Hindi Movies HDSCamRip with Sample rDX
  • Category
  • Added
    on 2014-02-01 01:51:05
  • Hash
    185f5f8108aa0b04cd67d68765fc3e8f847834b8
One By Two 2014 Hindi Movies HDSCamRip with Sample ~ ☻rDX☻
Please check SCREEN SHOTS first :http://moviesreview.cu.cc/2014/2/OneByTwo/1.htmlhttp://moviesreview.cu.cc/2014/2/OneByTwo/2.htmlhttp://moviesreview.cu.cc/2014/2/OneByTwo/3.htmlhttp://moviesreview.cu.cc/2014/2/OneByTwo/4.htmlhttp://moviesreview.cu.cc/2014/2/OneByTwo/5.htmlhttp://moviesreview.cu.cc/2014/2/OneByTwo/6.html
All rDX torrents are Seeding From the 1Gbps Seedbox 24X7
want to use our seed box For free, PM me.
Format : Matroska
Format version : Version 4 / Version 2
File size : 691 MiB
Duration : 2h 7mn
Overall bit rate mode : Variable
Overall bit rate : 759 Kbps
Movie name : One By Two 2014 Hindi Movies HDSCamRip ~ rDX ~
Video
ID : 1
Format : MPEG Video
Format version : Version 2
Format profile : Main@Main
Format settings, BVOP : No
Format settings, Matrix : Default
Codec ID : V_MPEG2
Codec ID/Info : MPEG 1 or 2 Video
Duration : 2h 7mn
Bit rate mode : Variable
Bit rate : 552 Kbps
Maximum bit rate : 9 016 Kbps
Width : 352 pixels
Height : 288 pixels
Display aspect ratio : 4:3
Frame rate mode : Constant
Frame rate : 25.000 fps
Standard : PAL
Color space : YUV
Chroma subsampling : 4:2:0
Bit depth : 8 bits
Scan type : Progressive
Compression mode : Lossy
Bits/(Pixel*Frame) : 0.218
Stream size : 502 MiB (73%)
Default : Yes
Forced : No
Audio
ID : 2
Format : AC-3
Format/Info : Audio Coding 3
Mode extension : CM (complete main)
Format settings, Endianness : Big
Codec ID : A_AC3
Duration : 2h 7mn
Bit rate mode : Constant
Bit rate : 192 Kbps
Channel(s) : 2 channels
Channel positions : Front: L R
Sampling rate : 48.0 KHz
Bit depth : 16 bits
Compression mode : Lossy
Stream size : 175 MiB (25%)
Default : Yes
Forced
FileSize
One By Two 2014 Hindi Movies HDSCamRip with Sample ~ ☻rDX☻/One By Two 2014 Hindi Movies HDSCamRip ~ ☻rDX☻.mkv690.87 Mb
One By Two 2014 Hindi Movies HDSCamRip with Sample ~ ☻rDX☻/Sample ~ One By Two 2014 Hindi Movies HDSCamRip ~ ☻rDX☻.mkv12.03 Mb
TrackerSeedsLeechsDownloaded
udp://tracker.publicbt.com:80/scrape421910
udp://tracker.openbittorrent.com:80/scrape472310
udp://tracker.istole.it:80/scrape743010
udp://11.rarbg.com:80/scrape532110
udp://9.rarbg.com:2710/scrape45211113
http://fr33dom.h33t.com:3310/scrape000
http://tracker.ex.ua/scrape51261134

It's removed by the request of copyright owner, but we have tons of cool stuff like this:

Search for full movies One by Two 2014 720p HDRiP 999MB ShAaNiG com mkv, related to One by Two 2014 720p HDRiP 999MB ShAaNiG com mkv