English

Shakira - Can't Remember to Forget You ft. Rihanna (720p) x264 [TonyStark].mp4

Total size: 45.20 Mb Seeds 64 Leechs 0
Shakira - Can't Remember to Forget You ft. Rihanna (720p) x264 
General
Complete name : Shakira - Can't Remember to Forget You ft. Rihanna (720p) x264 .mp4
Format : MPEG-4
Codec ID : mp42
File size : 45.2 MiB
Duration : 3mn 28s
Overall bit rate mode : Variable
Overall bit rate : 1 820 Kbps
Encoded date : UTC 2014-01-28 21:22:59
Tagged date : UTC 2014-01-28 21:22:59
Video
ID : 1
Format : AVC
Format/Info : Advanced Video Codec
Format profile : 
/*  */

Format settings, CABAC : Yes
Format settings, ReFrames : 1 frame
Codec ID : avc1
Duration : 3mn 28s
Bit rate : 1 626 Kbps
Maximum bit rate : 4 504 Kbps
Width : 1 280 pixels
Height : 720 pixels
Display aspect ratio : 16:9
Frame rate mode : Constant
Frame rate : 23.976 fps
Color space : YUV
Chroma subsampling : 4:2:0
Bit depth : 8 bits
Scan type : Progressive
Bits/(Pixel*Frame) : 0.074
Stream size : 40.4 MiB (89%)
Audio
ID : 2
Format : AAC
Format/Info : Advanced Audio Codec
Format profile : LC
Codec ID : 40
Duration : 3mn 28s
Bit rate mode : Variable
Bit rate : 192 Kbps
Maximum bit rate : 201 Kbps
Channel count : 2 channels
Channel positions : Front: L R
Sampling rate : 44.1 KHz
Compression mode : Lossy
Stream size : 4.77 MiB (11%)
Encoded date : UTC 2014-01-28 21:23:00
Tagged date : UTC 2014-01-28 21:23:00
Screens
FileSize
Shakira - Can't Remember to Forget You ft. Rihanna (720p) x264 [TonyStark].mp445.20 Mb
TrackerSeedsLeechsDownloaded
udp://tracker.openbittorrent.com:80/scrape8010
udp://tracker.publicbt.com:80/scrape7010
udp://10.rarbg.me:80/scrape7010
udp://9.rarbg.me:2710/scrape11030
udp://11.rarbg.me:80/scrape10010
udp://9.rarbg.com:2710/scrape11030
udp://tracker.openbittorrent.com/scrape10010
http://coppersurfer.tk:6969/scrape000

Report this torrent

We will carefully monitor this report and react whenever possible.
Thanks for helping us in filtering out bad content and improving TorrentReactor for every other visitor!
Please login or register to be able to report torrents.

Your comment

Please Login or register to be able to add comments.

All comments

No one has added a comment yet. Be the first one.

Related torrents

Shakira - Can't Remember to Forget You ft. Rihanna (720p) x264 [TonyStark].mp4, related to Shakira - Can't Remember to Forget You ft. Rihanna (720p) x264 [TonyStark].mp4