English

Meet Joe Black (1998) 1080p

Total size: 5.08 Gb Seeds 3 Leechs 25
							
SINOPSIS
William Parrish (Anthony Hopkins), es un poderoso y meticuloso magnate cuya vida se ve alterada por la llegada de un enigmático joven llamado Joe Black (Brad Pitt) que se enamora de su hija (Claire Forlani). Se trata, en realidad, de la personificación de la muerte, con una misión que cumplir en dicho hogar...
Format : Matroska
Format version : Version 4 / Version 2
File size : 5.08 GiB
Duration : 3h 0mn
Overall bit rate : 4 026 Kbps
Encoded date : UTC 2014-01-23 22:13:59
Writing application : mkvmerge v6.7.0 ('Back to the Ground') 64bit built on Jan 8 2014 15:10:52
Writing library : libebml v1.3.0 + libmatroska v1.4.1
TITLE : Meet Joe Black 1998 BDRip 1080p DTS x264 encod by MarGe
Video
ID : 1
Format : AVC
Format/Info : Advanced Video Codec
Format profile : Main@L4.0
Format settings, CABAC : Yes
Format settings, ReFrames : 4 frames
Codec ID : V_MPEG4/ISO/AVC
Duration : 3h 0mn
Bit rate : 3 000 Kbps
Width : 1 920 pixels
Height : 1 040 pixels
Display aspect ratio : 1.85:1
Frame rate mode : Constant
Frame rate : 23.976 fps
Color space : YUV
Chroma subsampling : 4:2:0
Bit depth : 8 bits
Scan type : Progressive
Bits/(Pixel*Frame) : 0.063
Stream size : 3.68 GiB (73%)
Writing library : x264 core 130 r2273 b3065e6
Encoding settings : cabac=1 / ref=1 / deblock=1:0:0 / analyse=0x1:0x111 / me=hex / subme=2 / psy=1 / psy_rd=1.00:0.00 / mixed_ref=0 / me_range=16 / chroma_me=1 / trellis=0 / 8x8dct=0 / cqm=0 / deadzone=21,11 / fast_pskip=1 / chroma_qp_offset=0 / threads=6 / lookahead_threads=2 / sliced_threads=0 / nr=0 / decimate=1 / interlaced=0 / bluray_compat=0 / constrained_intra=0 / bframes=3 / b_pyramid=2 / b_adapt=1 / b_bias=0 / direct=1 / weightb=1 / open_gop=0 / weightp=1 / keyint=240 / keyint_min=24 / scenecut=40 / intra_refresh=0 / rc_lookahead=10 / rc=2pass / mbtree=1 / bitrate=3000 / ratetol=1.0 / qcomp=0.60 / qpmin=0 / qpmax=69 / qpstep=4 / cplxblur=20.0 / qblur=0.5 / vbv_maxrate=20000 / vbv_bufsize=25000 / nal_hrd=none / ip_ratio=1.40 / aq=1:1.00
Language : English
Default : Yes
Forced : No
Color primaries : BT.709
Transfer characteristics : BT.709
Matrix coefficients : BT.709
Audio #1
ID : 2
Format : AC-3
Format/Info : Audio Coding 3
Mode extension : CM (complete main)
Format settings, Endianness : Big
Codec ID : A_AC3
Duration : 3h 0mn
Bit rate mode : Constant
Bit rate : 640 Kbps
Channel count : 6 channels
Channel positions : Front: L C R, Side: L R, LFE
Sampling rate : 48.0 KHz
Bit depth : 16 bits
Compression mode : Lossy
Stream size : 827 MiB (16%)
Title : Español Latino
Language : Latin
Default : Yes
Forced : No
Audio #2
ID : 3
Format : AC-3
Format/Info : Audio Coding 3
Mode extension : CM (complete main)
Format settings, Endianness : Big
Codec ID : A_AC3
Duration : 3h 0mn
Bit rate mode : Constant
Bit rate : 384 Kbps
Channel count : 6 channels
Channel positions : Front: L C R, Side: L R, LFE
Sampling rate : 48.0 KHz
Bit depth : 16 bits
Compression mode : Lossy
Stream size : 496 MiB (10%)
Title : Ingles
Language : English
Default : No
Forced : No
Text #1
ID : 4
Format : UTF-8
Codec ID : S_TEXT/UTF8
Codec ID/Info : UTF-8 Plain Text
Title : Forzados
Language : Latin
Default : Yes
Forced : Yes
Text #2
ID : 5
Format : UTF-8
Codec ID : S_TEXT/UTF8
Codec ID/Info : UTF-8 Plain Text
Title : Español Latino
Language : Latin
Default : No
Forced : No
Text #3
ID : 6
Format : UTF-8
Codec ID : S_TEXT/UTF8
Codec ID/Info : UTF-8 Plain Text
Title : Ingles
Language : English
Default : No
Forced : No
Text #4
ID : 7
Format : UTF-8
Codec ID : S_TEXT/UTF8
Codec ID/Info : UTF-8 Plain Text
Title : Dutch
Language : Dutch
Default : No
Forced : No
Text #5
ID : 8
Format : UTF-8
Codec ID : S_TEXT/UTF8
Codec ID/Info : UTF-8 Plain Text
Title : Romanian
Language : Romanian
Default : No
Forced : No
Menu
00:00:00.000 : en:Chapter 1
00:02:43.830 : en:Chapter 2
00:11:05.748 : en:Chapter 3
00:22:13.165 : en:Chapter 4
00:50:30.027 : en:Chapter 5
01:01:10.000 : en:Chapter 6
01:11:29.911 : en:Chapter 7
01:25:20.991 : en:Chapter 8
01:32:19.451 : en:Chapter 9
01:37:13.286 : en:Chapter 10
01:44:29.722 : en:Chapter 11
02:17:29.658 : en:Chapter 13
02:21:50.335 : en:Chapter 14
02:30:16.507 : en:Chapter 15
02:36:23.499 : en:Chapter 16
02:49:02.382 : en:Chapter 17
02:54:26.456 : en:Chapter 18
						
FileSize
Meet Joe Black (1998) 1080p/Meet Joe Black (1998) 1080p.mkv5.08 Gb
Meet Joe Black (1998) 1080p/Meet joe Black.jpg710.55 Kb
Meet Joe Black (1998) 1080p/Leer.txt303.00 b
TrackerSeedsLeechsDownloaded
udp://tracker.publicbt.com:80/scrape3410
udp://tracker.openbittorrent.com:80/scrape0410
udp://tracker.istole.it:80/scrape0510
udp://9.rarbg.com:2710/scrape06571
udp://9.rarbg.me:2710/scrape06571

Report this torrent

We will carefully monitor this report and react whenever possible.
Thanks for helping us in filtering out bad content and improving TorrentReactor for every other visitor!
Please login or register to be able to report torrents.

Your comment

Please Login or register to be able to add comments.

All comments

No one has added a comment yet. Be the first one.

Related torrents

Meet Joe Black (1998) 1080p, related to Meet Joe Black (1998) 1080p