Download Jai Ho 2014 Hindi Movies DVDRip x264 with Sample rDX torrent

Verified torrent

Jai Ho 2014 Hindi Movies DVDRip x264 with Sample rDX torrent

Total size: 704.50 Mb Seeds 25 Leechs 17
							
Jai Ho 2014 Hindi Movies DVDRip x264 with Sample ~ ☻rDX☻Please check SCREEN SHOTS first :http://moviesreview.cu.cc/2014/1/JaiHoDVD/1.htmlhttp://moviesreview.cu.cc/2014/1/JaiHoDVD/2.htmlhttp://moviesreview.cu.cc/2014/1/JaiHoDVD/3.htmlhttp://moviesreview.cu.cc/2014/1/JaiHoDVD/4.htmlhttp://moviesreview.cu.cc/2014/1/JaiHoDVD/5.htmlhttp://moviesreview.cu.cc/2014/1/JaiHoDVD/6.htmlAll rDX torrents are Seeding From the 1Gbps Seedbox 24X7want to use our seed box For free, PM me.
Format : Matroska
Format version : Version 4 / Version 2
File size : 696 MiB
Duration : 2h 17mn
Overall bit rate : 709 Kbps
Movie name : Jai Ho 2014 Hindi Movies DVDRip XViD ~ rDX ~
Video
ID : 1
Format : AVC
Format/Info : Advanced Video Codec
Format profile : High@L2.1
Format settings, CABAC : Yes
Format settings, ReFrames : 5 frames
Codec ID : V_MPEG4/ISO/AVC
Duration : 2h 17mn
Bit rate : 643 Kbps
Width : 608 pixels
Height : 256 pixels
Display aspect ratio : 2.40:1
Frame rate mode : Constant
Frame rate : 23.976 fps
Color space : YUV
Chroma subsampling : 4:2:0
Bit depth : 8 bits
Scan type : Progressive
Bits/(Pixel*Frame) : 0.172
Stream size : 620 MiB (89%)
Writing library : x264
Language : English
Default : Yes
Forced : No
Audio
ID : 2
Format : MPEG Audio
Format version : Version 2
Format profile : Layer 3
Mode : Joint stereo
Mode extension : MS Stereo
Codec ID : A_MPEG/L3
Codec ID/Hint : MP3
Duration : 2h 17mn
Bit rate mode : Constant
Bit rate : 64.0 Kbps
Channel(s) : 2 channels
Sampling rate : 24.0 KHz
Compression mode : Lossy
Stream size : 63.0 MiB (9%)
Writing library : LAME3.99r
Encoding settings : -m j -V 4 -q 2 -lowpass 11 -b 64
Default : Yes
Forced : No
						

Jai Ho 2014 Hindi Movies DVDRip x264 with Sample rDX

Jai Ho 2014 Hindi Movies DVDRip x264 with Sample rDX

Jai Ho 2014 Hindi Movies DVDRip x264 with Sample rDX

Jai Ho 2014 Hindi Movies DVDRip x264 with Sample rDX

FileSize
Jai Ho 2014 Hindi Movies DVDRip x264 with Sample ~ ☻rDX☻/Jai Ho 2014 Hindi Movies DVDRip x264 ~ ☻rDX☻.mkv696.41 Mb
Jai Ho 2014 Hindi Movies DVDRip x264 with Sample ~ ☻rDX☻/Sample ~ Jai Ho 2014 Hindi Movies DVDRip x264 ~ ☻rDX☻.mkv8.09 Mb
TrackerSeedsLeechsDownloaded
udp://tracker.publicbt.com:80/scrape5410
udp://tracker.openbittorrent.com:80/scrape4310
udp://tracker.istole.it:80/scrape6410
udp://9.rarbg.com:2710/scrape53129
udp://11.rarbg.com:80/scrape5310
http://fr33dom.h33t.com:3310/scrape000
http://tracker.ex.ua/scrape000
Report this torrent
We will carefully monitor this report and react whenever possible.
Thanks for helping us in filtering out bad content and improving TorrentReactor for every other visitor!
Please login or register to be able to report torrents.

Your comment

Please Login or register to be able to add comments.

All comments

No one has added a comment yet. Be the first one.

Related torrents

Jai Ho 2014 Hindi Movies DVDRip x264 with Sample rDX, related to Jai Ho 2014 Hindi Movies DVDRip x264 with Sample rDX