ABCD Yaariyan (2014) Full Video Song HD 1080p -AshishRocks- { DAKU RG }.MP4 torrent

Total size: 91.03 Mb Seeds 7 Leechs 3
General 

Complete name : ABCD Yaariyan (2014) Full Video Song HD 1080p -AshishRocks- { DAKU RG } 
Format : MPEG-4 
Format profile : Base Media 
Codec ID : isom 
File size : 91.0 MiB 
Duration : 3mn 9s 
Overall bit rate mode : Variable 
Overall bit rate : 4 036 Kbps 
Encoded date : UTC 2014-01-17 07:27:15 
Tagged date : UTC 2014-01-17 07:27:15 

Video 

ID : 1 
Format : AVC 
Format/Info : Advanced Video Codec 
Format profile : [email protected] 
Format settings, CABAC : Yes 
Format settings, ReFrames : 2 frames 
Codec ID : avc1 
Codec ID/Info : Advanced Video Coding 
Duration : 3mn 9s 
Bit rate : 3 909 Kbps 
Width : 1 920 pixels 
Height : 1 080 pixels 
Display aspect ratio : 16:9 
Frame rate mode : Constant 
Frame rate : 25.000 fps 
Color space : YUV 
Chroma subsampling : 4:2:0 
Bit depth : 8 bits 
Scan type : Progressive 
Bits/(Pixel*Frame) : 0.075 
Stream size : 88.1 MiB (97%) 
Encoded date : UTC 2014-01-17 07:27:15 
Tagged date : UTC 2014-01-17 07:27:15 

Audio 

ID : 2 
Format : AAC 
Format/Info : Advanced Audio Codec 
Format profile : LC 
Codec ID : 40 
Duration : 3mn 9s 
Bit rate mode : Variable 
Bit rate : 126 Kbps 
Channel(s) : 2 channels 
Channel positions : Front: L R 
Sampling rate : 44.1 KHz 
Compression mode : Lossy 
Stream size : 2.83 MiB (3%) 
Encoded date : UTC 2014-01-17 07:26:58 
Tagged date : UTC 2014-01-17 07:26:58 
		
FileSize
ABCD Yaariyan (2014) Full Video Song HD 1080p -AshishRocks- { DAKU RG }.MP491.03 Mb
TrackerSeedsLeechsDownloaded
udp://tracker.openbittorrent.com:80/scrape1110
udp://tracker.istole.it:80/scrape3110
udp://tracker.publicbt.com:80/scrape1010
udp://9.rarbg.com:2710/scrape210
http://tracker.thepiratebay.org/scrape000
http://exodus.desync.com/scrape000
http://pow7.com/scrape000
Report this torrent
We will carefully monitor this report and react whenever possible.
Thanks for helping us in filtering out bad content and improving TorrentReactor for every other visitor!
Please login or register to be able to report torrents.

Your comment
Please Login or register to be able to add comments.
All comments

No one has added a comment yet. Be the first one.

Related torrents
ABCD Yaariyan (2014) Full Video Song HD 1080p -AshishRocks- { DAKU RG }.MP4, related to ABCD Yaariyan (2014) Full Video Song HD 1080p -AshishRocks- { DAKU RG }.MP4