Verified torrent

Lords.of.London.2014.DVDRiP.XViD.AC3-FiRE torrent

Total size: 1.36 Gb Seeds 786 Leechs 31
Lords.of.London.2014.DVDRiP.XViD.AC3-FiRE
Lords.of.London.2014.DVDRiP.XViD.AC3-FiRE

**********************************************************************************
           
Format                                   : AVI
Format/Info                              : Audio Video Interleave
File size                                : 1.36 GiB
Duration                                 : 1h 32 mn
Overall bit rate                         : 2 114 Kbps
Writing application                      : VirtualDubMod 1.5.10.2 
Writing library                          : VirtualDubMod build 2542/release

**********************************************************************************

ID                                       : 0
Format                                   : MPEG-4 Visual
Format profile                           : Advanced Simple@L5
Format settings, BVOP                    : 2
Format settings, QPel                    : No
Format settings, GMC                     : No warppoints
Format settings, Matrix                  : Default (H.263)
Muxing mode                              : Packed bitstream
Codec ID                                 : XVID
Codec ID/Hint                            : XviD
Duration                                 : 1h 32 mn
Bit rate                                 : 1 720 Kbps
Width                                    : 720 pixels
Height                                   : 304 pixels
Display aspect ratio                     : 2.35:1
Frame rate                               : 23.976 fps
Color space                              : YUV
Chroma subsampling                       : 4:2:0
Bit depth                                : 8 bits
Scan type                                : Progressive
Compression mode                         : Lossy
Bits/(Pixel*Frame)                       : 0.314
Stream size                              : 1.11 GiB (81%)
Writing library                          : XviD 58

**********************************************************************************

ID                                       : 1
Format                                   : AC-3
Format/Info                              : Audio Coding 3
Mode extension                           : CM (complete main)
Format settings, Endianness              : Big
Codec ID                                 : 2000
Duration                                 : 1h 32 mn
Bit rate mode                            : Constant
Bit rate                                 : 384 Kbps
Channel(s)                               : 6 channels
Channel positions                        : Front: L C R, Side: L R, LFE
Sampling rate                            : 48.0 KHz
Bit depth                                : 16 bits
Compression mode                         : Lossy
Stream size                              : 253 MiB (18%)
Alignment                                : Split accross interleaves
Interleave, duration                     : 42 ms (1.00 video frame)
Interleave, preload duration             : 500 ms

**********************************************************************************

Genre:  Crime | Mystery | Thriller  

Actors: Glen Murphy, Ray Winstone, Giovanni Capalbo 

Plot: 

Tony (Glen Murphy) is a notorious gangster with a big problem. He has woken up in an abandoned farmhouse, with blood on his shirt, and no memory of how he got there. He stumbles into a small town and discovers heΓÇÖs in an Italian village that seems to be lost in time. There are no phones and, as a stranger, no one will talk to him, except for one kind man, Francesco. Francesco tells of his grand-daughter, who is travelling Europe with a British boy she has fallen in love with. The boy is a hustler and Francesco worries she is making a huge mistake. Something in FrancescoΓÇÖs tale strikes a familiar chord with Tony, and he realises he did not end up here by accident. Once Tony puts the pieces together, he has to choose between continuing his life as a gangster or sacrificing himself so others shall live.

**********************************************************************************

IMDb:
 
http://www.imdb.com/title/tt1800337/

**********************************************************************************

Screens:
 
http://img.acianetmedia.com/i/xro5n.jpg
 
http://img.acianetmedia.com/i/SMG94.jpg
 
http://img.acianetmedia.com/i/DxqJj.jpg
 
http://img.acianetmedia.com/i/vDosX.jpg
 
http://img.acianetmedia.com/i/Awazh.jpg		

Lords.of.London.2014.DVDRiP.XViD.AC3-FiRE

Lords.of.London.2014.DVDRiP.XViD.AC3-FiRE

Lords.of.London.2014.DVDRiP.XViD.AC3-FiRE

Lords.of.London.2014.DVDRiP.XViD.AC3-FiRE

FileSize
Lords.of.London.2014.DVDRiP.XViD.AC3-FiRE/Lords.of.London.2014.DVDRiP.XViD.AC3-FiRE.avi1.36 Gb
Lords.of.London.2014.DVDRiP.XViD.AC3-FiRE/Lords.of.London.2014.DVDRiP.XViD.AC3-FiRE.nfo2.77 Kb
Lords.of.London.2014.DVDRiP.XViD.AC3-FiRE/Torrent Downloaded From ExtraTorrent.cc.txt352.00 b
TrackerSeedsLeechsDownloaded
udp://tracker.istole.it:80/scrape142510
udp://tracker.publicbt.com:80/scrape101410
udp://12.rarbg.me:80/scrape141510
udp://9.rarbg.com:2710/scrape70570609
udp://11.rarbg.com:80/scrape101410
udp://pow7.com:80/scrape101410
udp://open.demonii.com:1337/scrape1304422
http://tracker.thepiratebay.org/scrape000
http://tracker.nwps.ws:6969/scrape000
Report this torrent
We will carefully monitor this report and react whenever possible.
Thanks for helping us in filtering out bad content and improving TorrentReactor for every other visitor!
Please login or register to be able to report torrents.

Your comment
Please Login or register to be able to add comments.
All comments

No one has added a comment yet. Be the first one.

Related torrents
Lords.of.London.2014.DVDRiP.XViD.AC3-FiRE, related to Lords.of.London.2014.DVDRiP.XViD.AC3-FiRE