Yevadu 2014 Telugu Movie DVDScr XviD Exclusive

Yevadu 2014 Telugu Movie DVDScr XviD Exclusive

Total size: 700.75 Mb
Removed by the request of copyright owner

  • Category
  • Added
    on 2014-01-14 01:52:06
  • Hash
    a36efcd6c2c9bf32b163da6c453062cfccdddb2b
Code:

Info:
Format : AVI
Format/Info : Audio Video Interleave
File size : 700 MiB
Duration : 2h 31mn
Overall bit rate : 645 Kbps
Video
ID : 0
Format : MPEG-4 Visual
Format profile : Simple@L3
Format settings, BVOP : No
Format settings, QPel : No
Format settings, GMC : No warppoints
Format settings, Matrix : Default (H.263)
Codec ID : XVID
Codec ID/Hint : XviD
Duration : 2h 31mn
Bit rate : 552 Kbps
Width : 608 pixels
Height : 256 pixels
Display aspect ratio : 2.35:1
Frame rate : 29.970 fps
Color space : YUV
Chroma subsampling : 4:2:0
Bit depth : 8 bits
Scan type : Progressive
Bits/(Pixel*Frame) : 0.118
Stream size : 599 MiB (86%)
Writing library : XviD 1.1.2 (UTC 2006-11-01)
Audio
ID : 1
Format : MPEG Audio
Format version : Version 1
Format profile : Layer 3
Mode : Joint stereo
Mode extension : MS Stereo
Codec ID : 55
Codec ID/Hint : MP3
Duration : 2h 31mn
Bit rate mode : Constant
Bit rate : 80.0 Kbps
Channel(s) : 2 channels
Sampling rate : 44.1 KHz
Stream size : 86.8 MiB (12%)
Alignment : Split accross interleaves
Interleave, duration : 26 ms (0.78 video frame)
Screens:

Yevadu 2014 Telugu Movie DVDScr XviD Exclusive

Yevadu 2014 Telugu Movie DVDScr XviD Exclusive

Yevadu 2014 Telugu Movie DVDScr XviD Exclusive

FileSize
Yevadu (2014) Telugu Movie DVDScr XviD - Exclusive/Torrent downloaded from AhaShare.com.txt59.00 b
Yevadu (2014) Telugu Movie DVDScr XviD - Exclusive/_____padding_file_0_if you see this file, please update to BitComet 0.85 or above____255.94 Kb
Yevadu (2014) Telugu Movie DVDScr XviD - Exclusive/Torrent downloaded from Hollytorrents.com.txt96.00 b
Yevadu (2014) Telugu Movie DVDScr XviD - Exclusive/_____padding_file_1_if you see this file, please update to BitComet 0.85 or above____255.91 Kb
Yevadu (2014) Telugu Movie DVDScr XviD - Exclusive/Yevadu (2014) Telugu Movie DVDScr XviD - Exclusive.avi700.16 Mb
Yevadu (2014) Telugu Movie DVDScr XviD - Exclusive/_____padding_file_2_if you see this file, please update to BitComet 0.85 or above____92.15 Kb
Yevadu (2014) Telugu Movie DVDScr XviD - Exclusive/Yevadu (2014) Telugu Movie DVDScr XviD - Exclusive.srt2.25 Kb
TrackerSeedsLeechsDownloaded
udp://tracker.publicbt.com:80/scrape34714610
udp://tracker.openbittorrent.com:80/scrape29112110

It's removed by the request of copyright owner, but we have tons of cool stuff like this:

Search for full movies Yevadu 2014 Telugu video Songs HD 1080P, related to Yevadu 2014 Telugu video Songs HD 1080P