Dedh Ishqiya 2014 Hindi Movies CamRip MPEG with Sample rDX

Verified torrent

Dedh Ishqiya 2014 Hindi Movies CamRip MPEG with Sample rDX

Total size: 706.03 Mb Seeds 12 Leechs 0
Dedh Ishqiya 2014 Hindi Movies CamRip MPEG with Sample ☻rDX☻
Please check SCREEN SHOTS first :http://moviesreview.cu.cc/2014/1/DedhIshqiya/1.htmlhttp://moviesreview.cu.cc/2014/1/DedhIshqiya/2.htmlhttp://moviesreview.cu.cc/2014/1/DedhIshqiya/3.htmlhttp://moviesreview.cu.cc/2014/1/DedhIshqiya/4.htmlhttp://moviesreview.cu.cc/2014/1/DedhIshqiya/5.htmlhttp://moviesreview.cu.cc/2014/1/DedhIshqiya/6.html
All rDX torrents are Seeding From the 1Gbps Seedbox 24X7
want to use our seed box For free, PM me.
Format : MPEG-PS
File size : 697 MiB
Duration : 1h 42mn
Overall bit rate mode : Variable
Overall bit rate : 954 Kbps
Video
ID : 224 (0xE0)
Format : MPEG Video
Format version : Version 2
Format profile : Main@Main
Format settings, BVOP : Yes
Format settings, Matrix : Default
Format settings, GOP : M=3, N=13
Duration : 1h 42mn
Bit rate mode : Variable
Bit rate : 807 Kbps
Maximum bit rate : 9 672 Kbps
Width : 352 pixels
Height : 288 pixels
Display aspect ratio : 4:3
Frame rate : 25.000 fps
Standard : PAL
Color space : YUV
Chroma subsampling : 4:2:0
Bit depth : 8 bits
Scan type : Progressive
Compression mode : Lossy
Bits/(Pixel*Frame) : 0.318
Stream size : 589 MiB (85%)
Audio
ID : 192 (0xC0)
Format : MPEG Audio
Format version : Version 1
Format profile : Layer 2
Duration : 1h 42mn
Bit rate mode : Constant
Bit rate : 128 Kbps
Channel(s) : 2 channels
Sampling rate : 48.0 KHz
Compression mode : Lossy
Stream size : 93.5 MiB

FileSize
Dedh Ishqiya 2014 Hindi Movies CamRip MPEG with Sample ☻rDX☻/Dedh Ishqiya 2014 Hindi Movies CamRip MPEG ☻rDX☻.mpeg696.59 Mb
Dedh Ishqiya 2014 Hindi Movies CamRip MPEG with Sample ☻rDX☻/Sample ~ Dedh Ishqiya 2014 Hindi Movies CamRip MPEG ☻rDX☻.avi9.44 Mb
TrackerSeedsLeechsDownloaded
udp://tracker.publicbt.com:80/scrape1010
udp://tracker.openbittorrent.com:80/scrape3010
udp://tracker.istole.it:80/scrape308
udp://11.rarbg.com:80/scrape2010
udp://9.rarbg.com:2710/scrape300
http://fr33dom.h33t.com:3310/scrape000
http://tracker.ex.ua/scrape000
Report this torrent
We will carefully monitor this report and react whenever possible.
Thanks for helping us in filtering out bad content and improving TorrentReactor for every other visitor!
Please login or register to be able to report torrents.

Your comment

Please Login or register to be able to add comments.

All comments

No one has added a comment yet. Be the first one.

Related movies

Search for full movies Dedh Ishqiya 2014 Hindi Movies CamRip MPEG with Sample rDX, related to Dedh Ishqiya 2014 Hindi Movies CamRip MPEG with Sample rDX