Mr. Joe B Carvalho 2014 Hindi Movies DVDScrRip XViD New Source +Sample ☻rDX☻ torrent

Total size: 700.73 Mb Seeds 45 Leechs 23
Mr. Joe B Carvalho 2014 Hindi Movies DVDScrRip XViD New Source +Sample ☻rDX☻
Please check SCREEN SHOTS first :http://moviesreview.cu.cc/2014/1/MrJoeBCarvalhoDS/1.htmlhttp://moviesreview.cu.cc/2014/1/MrJoeBCarvalhoDS/2.htmlhttp://moviesreview.cu.cc/2014/1/MrJoeBCarvalhoDS/3.htmlhttp://moviesreview.cu.cc/2014/1/MrJoeBCarvalhoDS/4.htmlhttp://moviesreview.cu.cc/2014/1/MrJoeBCarvalhoDS/5.htmlhttp://moviesreview.cu.cc/2014/1/MrJoeBCarvalhoDS/6.html
All rDX torrents are Seeding From the 1Gbps Seedbox 24X7
want to use our seed box For free, PM me.
Format : AVI
Format/Info : Audio Video Interleave
File size : 696 MiB
Duration : 2h 0mn
Overall bit rate : 808 Kbps
Writing library : MPlayer
Video
ID : 0
Format : MPEG-4 Visual
Format profile : Advanced Simple@L5
Format settings, BVOP : 2
Format settings, QPel : No
Format settings, GMC : No warppoints
Format settings, Matrix : Default (H.263)
Muxing mode : Packed bitstream
Codec ID : XVID
Codec ID/Hint : XviD
Duration : 2h 0mn
Bit rate : 722 Kbps
Width : 640 pixels
Height : 272 pixels
Display aspect ratio : 2.35:1
Frame rate : 29.970 fps
Color space : YUV
Chroma subsampling : 4:2:0
Bit depth : 8 bits
Scan type : Progressive
Compression mode : Lossy
Bits/(Pixel*Frame) : 0.138
Stream size : 622 MiB (89%)
Writing library : XviD 64
Audio
ID : 1
Format : MPEG Audio
Format version : Version 1
Format profile : Layer 3
Mode : Joint stereo
Mode extension : MS Stereo
Codec ID : 55
Codec ID/Hint : MP3
Duration : 2h 0mn
Bit rate mode : Constant
Bit rate : 80.0 Kbps
Channel(s) : 2 channels
Sampling rate : 32.0 KHz
Compression mode : Lossy
Stream size : 68.9 MiB (10%)
Alignment : Split accross interleaves
Interleave, duration : 500 ms (14.98 video frames)
Interleave, preload duration : 500 ms
Writing library : LAME3.99r
Encoding settings : -m j -V 4 -q 2 -lowpass 13.5
FileSize
Mr. Joe B Carvalho 2014 Hindi Movies DVDScrRip XViD New Source +Sample ☻rDX☻/Mr. Joe B Carvalho 2014 Hindi Movies DVDScrRip XViD New Source ☻rDX☻.avi696.26 Mb
Mr. Joe B Carvalho 2014 Hindi Movies DVDScrRip XViD New Source +Sample ☻rDX☻/Sample ~ Mr. Joe B Carvalho 2014 Hindi Movies DVDScrRip XViD New Source ☻rDX☻.avi4.47 Mb
TrackerSeedsLeechsDownloaded
udp://tracker.publicbt.com:80/scrape7510
udp://tracker.openbittorrent.com:80/scrape5310
udp://tracker.istole.it:80/scrape9410
udp://11.rarbg.com:80/scrape7410
udp://9.rarbg.com:2710/scrape1031079
http://tracker.ex.ua/scrape74207
http://fr33dom.h33t.com:3310/scrape000
Report this torrent
We will carefully monitor this report and react whenever possible.
Thanks for helping us in filtering out bad content and improving TorrentReactor for every other visitor!
Please login or register to be able to report torrents.

Your comment
Please Login or register to be able to add comments.
All comments

No one has added a comment yet. Be the first one.

Related torrents
Mr. Joe B Carvalho 2014 Hindi Movies DVDScrRip XViD New Source +Sample ☻rDX☻, related to Mr. Joe B Carvalho 2014 Hindi Movies DVDScrRip XViD New Source +Sample ☻rDX☻