Jai Ho (2014) - Photocopy Video Song - Salman Khan HD 1080p {DAKU RG} {GreatPalash}.mp4 torrent

Total size: 55.16 Mb Seeds 17 Leechs 0
							Without Any reason..Don't Dislike the torrent.....please check and give your feedbackJai Ho (2014) - Photocopy Video Song - Salman Khan HD 1080p
Enjoy the video song "Photocopy from Jai Ho" in voice of Himesh Reshammiya, Keerthi Sagathia, Palak muchhal. The music is composed by Sajid Wajid while lyrics are penned by Kausar Munir.
Song: Photocopy
Singer: Himesh Reshammiya, Keerthi Sagathia, Palak muchhal.
Music: Sajid wajid
Lyrics: Kausar Munir
Movie; Jai Ho
Music Label: T-Series
Screenshots:-
Media Info:-
General
Complete name : Jai Ho (2014) - Photocopy Video Song - Salman Khan HD 1080p {DAKU RG} {GreatPalash}.mp4
Format : MPEG-4
Format profile : Base Media
Codec ID : isom
File size : 55.2 MiB
Duration : 1mn 48s
Overall bit rate mode : Variable
Overall bit rate : 4257 Kbps
Encoded date : UTC 2014-01-01 13:40:31
Tagged date : UTC 2014-01-01 13:40:31
Video
ID : 1
Format : AVC
Format/Info : Advanced Video Codec
Format profile : [email protected]
Format settings, CABAC : Yes
Format settings, ReFrames : 2 frames
Codec ID : avc1
Codec ID/Info : Advanced Video Coding
Duration : 1mn 48s
Bit rate : 4 132 Kbps
Width : 1920 pixels
Height : 1080 pixels
Display aspect ratio : 16:9
Frame rate mode : Constant
Frame rate : 25.000 fps
Color space : YUV
Chroma subsampling : 4:2:0
Bit depth : 8 bits
Scan type : Progressive
Bits/(Pixel*Frame) : 0.080
Stream size : 53.5 MiB (97%)
Encoded date : UTC 2014-01-01 13:40:31
Tagged date : UTC 2014-01-01 13:40:31
Audio
ID : 2
Format : AAC
Format/Info : Advanced Audio Codec
Format profile : LC
Codec ID : 40
Duration : 1mn 48s
Bit rate mode : Variable
Bit rate : 126 Kbps
Channel count : 2 channels
Channel positions : Front: L R
Sampling rate : 44.1 KHz
Compression mode : Lossy
Stream size : 1.63 MiB (3%)
Encoded date : UTC 2014-01-01 13:40:22
Tagged date : UTC 2014-01-01 13:40:22
						
FileSize
Jai Ho (2014) - Photocopy Video Song - Salman Khan HD 1080p {DAKU RG} {GreatPalash}.mp455.16 Mb
TrackerSeedsLeechsDownloaded
udp://tracker.publicbt.com:80/scrape4010
udp://tracker.openbittorrent.com:80/scrape4010
udp://open.demonii.com:1337/scrape4035
udp://9.rarbg.com:2710/scrape5012
http://exodus.desync.com/scrape000
http://www.hollytorrents.com/scrape.php000
Report this torrent
We will carefully monitor this report and react whenever possible.
Thanks for helping us in filtering out bad content and improving TorrentReactor for every other visitor!
Please login or register to be able to report torrents.

Your comment
Please Login or register to be able to add comments.
All comments

No one has added a comment yet. Be the first one.

Related torrents
Jai Ho (2014) - Photocopy Video Song - Salman Khan HD 1080p {DAKU RG} {GreatPalash}.mp4, related to Jai Ho (2014) - Photocopy Video Song - Salman Khan HD 1080p {DAKU RG} {GreatPalash}.mp4