Sergeant York (1941) Colorized torrent

Total size: 1.07 Gb Seeds 8 Leechs 7
							
General
Complete name : Colorized Sergeant York (1941) Colorized.avi
Format : AVI
Format/Info : Audio Video Interleave
File size : 1.06 GiB
Duration : 2h 13mn
Overall bit rate mode : Variable
Overall bit rate : 1 141 Kbps
Video
ID : 0
Format : MPEG-4 Visual
Format settings, BVOP : 1
Format settings, QPel : No
Format settings, GMC : No warppoints
Format settings, Matrix : Default (H.263)
Muxing mode : Packed bitstream
Codec ID : DX50
Codec ID/Hint : DivX 5
Duration : 2h 13mn
Bit rate : 1 006 Kbps
Width : 640 pixels
Height : 480 pixels
Display aspect ratio : 4:3
Frame rate : 29.970 fps
Color space : YUV
Chroma subsampling : 4:2:0
Bit depth : 8 bits
Scan type : Progressive
Compression mode : Lossy
Bits/(Pixel*Frame) : 0.109
Stream size : 959 MiB (88%)
Title : Video
Writing library : DivX 5.2.0 (DrDivX 105) (UTC 2004-07-17)
Audio
ID : 1
Format : MPEG Audio
Format version : Version 1
Format profile : Layer 3
Mode : Joint stereo
Mode extension : MS Stereo
Codec ID : 55
Codec ID/Hint : MP3
Duration : 2h 13mn
Bit rate mode : Variable
Bit rate : 128 Kbps
Channel(s) : 2 channels
Sampling rate : 44.1 KHz
Compression mode : Lossy
Stream size : 116 MiB (11%)
Alignment : Aligned on interleaves
Interleave, duration : 26 ms (0.78 video frame)
Interleave, preload duration : 479 ms
Title : Audio
						
FileSize
Sergeant York (1941) Colorized/Sergeant York (1941) Colorized.avi1.06 Gb
Sergeant York (1941) Colorized/SnapShot.bmp1.17 Mb
Sergeant York (1941) Colorized/SnapShot(0).bmp1.17 Mb
Sergeant York (1941) Colorized/SnapShot(1).bmp1.17 Mb
Sergeant York (1941) Colorized/SnapShot(2).bmp1.17 Mb
Sergeant York (1941) Colorized/SnapShot(3).bmp1.17 Mb
TrackerSeedsLeechsDownloaded
udp://tracker.publicbt.com:80/scrape1210
udp://tracker.openbittorrent.com:80/scrape1110
udp://tracker.istole.it:80/scrape3210
udp://coppersurfer.tk:6969/scrape103
udp://ipv4.tracker.harry.lu:80/scrape1210
http://anisaishuu.de:2710/scrape1039
http://scrape.torrentsmd.com:8080/scrape000
http://tracker.nwps.ws:6969/scrape000
http://scrape.torrentsmd.com:8080/scrape.php000
Report this torrent
We will carefully monitor this report and react whenever possible.
Thanks for helping us in filtering out bad content and improving TorrentReactor for every other visitor!
Please login or register to be able to report torrents.

Your comment
Please Login or register to be able to add comments.
All comments

No one has added a comment yet. Be the first one.

Related torrents
Sergeant York (1941) Colorized, related to Sergeant York (1941) Colorized