Download Satya 1998 torrent
Suspicious
Needs verification

Satya 1998 torrent

Total size: 706.98 Mb Seeds 29 Leechs 11
Satya 1998
These file details were taken through SUPER video conversion software. http://www.erightsoft.com/SUPER.html
These are available from VLC also.

[General] Complete name : Satya 1998SATYA 1998 full movie.mp4 
Format : MPEG-4 
Format profile : Base Media / Version 2 
Codec ID : mp42 
File size : 698 MiB 
Duration : 2h 52mn 
Overall bit rate mode : Variable 
Overall bit rate : 565 Kbps 

[Video] ID : 1 
Format : AVC 
Format/Info : Advanced Video Codec 
Format profile : Baseline@L2.2 
Format settings, CABAC : No 
Format settings, ReFrames : 1 frame 
Format settings, GOP : M=1, N=30 
Codec ID : avc1 
Codec ID/Info : Advanced Video Coding 
Duration : 2h 52mn 
Bit rate : 467 Kbps 
Maximum bit rate : 1 603 Kbps 
Width : 640 pixels 
Height : 336 pixels 
Display aspect ratio : 1.905 
Frame rate mode : Constant 
Frame rate : 23.976 fps 
Color space : YUV 
Chroma subsampling : 4:2:0 
Bit depth : 8 bits 
Scan type : Progressive 
Bits/(Pixel*Frame) : 0.091 
Stream size : 576 MiB (83%) 
Tagged date : UTC 2012-05-30 02:20:54 

[Audio] ID : 2 
Format : AAC 
Format/Info : Advanced Audio Codec 
Format profile : LC 
Codec ID : 40 
Duration : 2h 52mn 
Bit rate mode : Variable 
Bit rate : 96.0 Kbps 
Maximum bit rate : 138 Kbps 
Channel(s) : 2 channels 
Channel positions : Front: L R 
Sampling rate : 44.1 KHz 
Compression mode : Lossy 
Stream size : 118 MiB (17%) 
Title : IsoMedia File Produced by Google, 5-11-2011 

Subtitles were downloaded from OpenSubtitles.org
FileSize
Satya 1998/SATYA 1998 full movie.mp4697.62 Mb
Satya 1998/Sample - SATYA 1998 full movie.mp49.19 Mb
Satya 1998/SATYA 1998 full movie.srt120.57 Kb
Satya 1998/satya.(1998).eng.1cd.(3511279).zip47.37 Kb
Satya 1998/satya.(3511279).nfo6.21 Kb
TrackerSeedsLeechsDownloaded
udp://tracker.publicbt.com:80/scrape5210
udp://tracker.openbittorrent.com:80/scrape2010
udp://tracker.istole.it:80/scrape6210
udp://open.demonii.com:1337/scrape52129
udp://12.rarbg.me:80/scrape6210
udp://9.rarbg.com:2710/scrape53751
Report this torrent
We will carefully monitor this report and react whenever possible.
Thanks for helping us in filtering out bad content and improving TorrentReactor for every other visitor!
Please login or register to be able to report torrents.

Your comment

Please Login or register to be able to add comments.

All comments

No one has added a comment yet. Be the first one.

Related torrents

Satya 1998, related to Satya 1998