Download Dhoom 3 2013 Hindi Movies PDVDRip X264 ESubs with Sample rDX torrent

Verified torrent

Dhoom 3 2013 Hindi Movies PDVDRip X264 ESubs with Sample rDX torrent

Total size: 707.36 Mb Seeds 0 Leechs 0
Dhoom 3 2013 Hindi Movies PDVDRip X264 ESubs with Sample ~ ☻rDX☻
Please check SCREEN SHOTS first :http://moviesreview.cu.cc/2013/12/Dhoom3PDE/1.htmlhttp://moviesreview.cu.cc/2013/12/Dhoom3PDE/2.htmlhttp://moviesreview.cu.cc/2013/12/Dhoom3PDE/3.htmlhttp://moviesreview.cu.cc/2013/12/Dhoom3PDE/4.htmlhttp://moviesreview.cu.cc/2013/12/Dhoom3PDE/5.htmlhttp://moviesreview.cu.cc/2013/12/Dhoom3PDE/6.html
All rDX torrents are Seeding From the 1Gbps Seedbox 24X7
want to use our seed box For free, PM me.
Format : Matroska
Format version : Version 2
File size : 700 MiB
Duration : 2h 42mn
Overall bit rate : 603 Kbps
Video
ID : 1
Format : AVC
Format/Info : Advanced Video Codec
Format profile : 
/*  */

Format settings, CABAC : Yes
Format settings, ReFrames : 4 frames
Codec ID : V_MPEG4/ISO/AVC
Duration : 2h 42mn
Bit rate : 521 Kbps
Width : 640 pixels
Height : 272 pixels
Display aspect ratio : 2.35:1
Frame rate mode : Constant
Frame rate : 23.976 fps
Color space : YUV
Chroma subsampling : 4:2:0
Bit depth : 8 bits
Scan type : Progressive
Bits/(Pixel*Frame) : 0.125
Stream size : 593 MiB (85%)
Writing library : x264
Default : Yes
Forced : No
Audio
ID : 2
Format : MPEG Audio
Format version : Version 1
Format profile : Layer 3
Mode : Joint stereo
Mode extension : MS Stereo
Codec ID : A_MPEG/L3
Codec ID/Hint : MP3
Duration : 2h 42mn
Bit rate mode : Constant
Bit rate : 80.0 Kbps
Channel(s) : 2 channels
Sampling rate : 32.0 KHz
Compression mode : Lossy
Stream size : 92.9 MiB (13%)
Writing library : LAME3.99r
Encoding settings : -m j -V 4 -q 2 -lowpass 13.5 -b 80
Default : Yes
Forced

Dhoom 3 2013 Hindi Movies PDVDRip X264 ESubs with Sample rDX

Dhoom 3 2013 Hindi Movies PDVDRip X264 ESubs with Sample rDX

Dhoom 3 2013 Hindi Movies PDVDRip X264 ESubs with Sample rDX

FileSize
Dhoom 3 2013 Hindi Movies PDVDRip X264 ESubs with Sample ~ ☻rDX☻/Dhoom 3 2013 Hindi Movies PDVDRip X264 ESubs ~ ☻rDX☻.mkv700.05 Mb
Dhoom 3 2013 Hindi Movies PDVDRip X264 ESubs with Sample ~ ☻rDX☻/Sample ~ Dhoom 3 2013 Hindi Movies PDVDRip X264 ESubs ~ ☻rDX☻.mkv7.28 Mb
Dhoom 3 2013 Hindi Movies PDVDRip X264 ESubs with Sample ~ ☻rDX☻/Dhoom 3 2013 Hindi Movies PDVDRip X264 ESubs ~ ☻rDX☻.srt31.99 Kb
TrackerSeedsLeechsDownloaded
udp://tracker.publicbt.com:80/scrape0010
udp://tracker.openbittorrent.com:80/scrape0010
udp://tracker.istole.it:80/scrape004
udp://11.rarbg.com:80/scrape0010
udp://9.rarbg.com:2710/scrape000
http://fr33dom.h33t.com:3310/scrape000
http://tracker.ex.ua/scrape000
Report this torrent
We will carefully monitor this report and react whenever possible.
Thanks for helping us in filtering out bad content and improving TorrentReactor for every other visitor!
Please login or register to be able to report torrents.

Your comment

Please Login or register to be able to add comments.

All comments

No one has added a comment yet. Be the first one.

Related torrents

Dhoom 3 2013 Hindi Movies PDVDRip X264 ESubs with Sample rDX, related to Dhoom 3 2013 Hindi Movies PDVDRip X264 ESubs with Sample rDX