English

X-Art - 2013-12-21 - No Turning Back Part 1 - Teal.mp4

Total size: 77.54 Mb Seeds 7 Leechs 2
X-Art - 2013-12-21 - No Turning Back Part 1 - Teal.mp4
General

Complete name                            : X-Art - 2013-12-21 - No Turning Back Part 1 - Teal.mp4
Format                                   : MPEG-4
Format profile                           : Base Media / Version 2
Codec ID                                 : mp42
File size                                : 77.5 MiB
Duration                                 : 13mn 57s
Overall bit rate mode                    : Variable
Overall bit rate                         : 777 Kbps
Encoded date                             : UTC 2013-12-21 13:11:58
Tagged date                              : UTC 2013-12-21 13:34:57
Writing application                      : HandBrake 0.9.9 2013052900

Video
ID                                       : 1
Format                                   : AVC
Format/Info                              : Advanced Video Codec
Format profile                           : High@L4.1
Format settings, CABAC                   : Yes
Format settings, ReFrames                : 4 frames
Codec ID                                 : avc1
Codec ID/Info                            : Advanced Video Coding
Duration                                 : 13mn 57s
Bit rate mode                            : Variable
Bit rate                                 : 625 Kbps
Width                                    : 960 pixels
Height                                   : 410 pixels
Display aspect ratio                     : 2.35:1
Frame rate mode                          : Constant
Frame rate                               : 25.000 fps
Color space                              : YUV
Chroma subsampling                       : 4:2:0
Bit depth                                : 8 bits
Scan type                                : Progressive
Bits/(Pixel*Frame)                       : 0.064
Stream size                              : 62.4 MiB (80%)
Writing library                          : x264 core 130 r2273 b3065e6
Encoding settings                        : cabac=1 / ref=3 / deblock=1:0:0 / analyse=0x3:0x113 / me=hex / subme=7 / psy=1 / psy_rd=1.00:0.00 / mixed_ref=1 / me_range=16 / chroma_me=1 / trellis=1 / 8x8dct=1 / cqm=0 / deadzone=21,11 / fast_pskip=1 / chroma_qp_offset=-2 / threads=3 / lookahead_threads=1 / sliced_threads=0 / nr=0 / decimate=1 / interlaced=0 / bluray_compat=0 / constrained_intra=0 / bframes=3 / b_pyramid=2 / b_adapt=1 / b_bias=0 / direct=1 / weightb=1 / open_gop=0 / weightp=2 / keyint=250 / keyint_min=25 / scenecut=40 / intra_refresh=0 / rc_lookahead=40 / rc=crf / mbtree=1 / crf=20.0 / qcomp=0.60 / qpmin=0 / qpmax=69 / qpstep=4 / vbv_maxrate=62500 / vbv_bufsize=78125 / crf_max=0.0 / nal_hrd=none / ip_ratio=1.40 / aq=1:1.00
Encoded date                             : UTC 2013-12-21 13:11:58
Tagged date                              : UTC 2013-12-21 13:34:57
Color primaries                          : BT.709
Transfer characteristics                 : BT.709
Matrix coefficients                      : BT.709

Audio
ID                                       : 2
Format                                   : AAC
Format/Info                              : Advanced Audio Codec
Format profile                           : LC
Codec ID                                 : 40
Duration                                 : 13mn 57s
Bit rate mode                            : Variable
Bit rate                                 : 147 Kbps
Maximum bit rate                         : 172 Kbps
Channel(s)                               : 2 channels
Channel positions                        : Front: L R
Sampling rate                            : 48.0 KHz
Compression mode                         : Lossy
Delay relative to video                  : 80ms
Stream size                              : 14.7 MiB (19%)
Language                                 : English
Encoded date                             : UTC 2013-12-21 13:11:58
Tagged date                              : UTC 2013-12-21 13:34:56

FileSize
X-Art - 2013-12-21 - No Turning Back Part 1 - Teal.mp477.54 Mb
TrackerSeedsLeechsDownloaded
udp://tracker.publicbt.com:80/scrape3010
udp://tracker.openbittorrent.com:80/scrape1210
udp://tracker.istole.it:80/scrape3010

Report this torrent

We will carefully monitor this report and react whenever possible.
Thanks for helping us in filtering out bad content and improving TorrentReactor for every other visitor!
Please login or register to be able to report torrents.

Your comment

Please Login or register to be able to add comments.

All comments

No one has added a comment yet. Be the first one.

Related torrents

X-Art - 2013-12-21 - No Turning Back Part 1 - Teal.mp4, related to X-Art - 2013-12-21 - No Turning Back Part 1 - Teal.mp4