Download The Hunger Games Catching Fire (2013) DVDRip XviD-IGUANA torrent

Fake torrent

The Hunger Games Catching Fire (2013) DVDRip XviD-IGUANA torrent

Total size: 693.18 Mb Seeds 0 Leechs 0
The Hunger Games Catching Fire (2013) DVDRip XviD-IGUANA
Width : 720 pixels
Height : 364 pixels
Display aspect ratio : 1.978
Frame rate mode : Constant
Frame rate : 23.976 fps
Color space : YUV
Chroma subsampling : 4:2:0
Bit depth : 8 bits
Scan type : Progressive
Bits/(Pixel*Frame) : 0.171
Stream size : 609 MiB (83%)
Writing library : x264 core 140 r2377 1ca7bb9

Audio
ID : 2
Format : AC-3
Format/Info : Audio Coding 3
Mode extension : CM (complete main)
Format settings, Endianness : Big
Codec ID : A_AC3
Duration : 1h 32mn
Bit rate mode : Constant
Bit rate : 192 Kbps
Channel(s) : 2 channels
Channel positions : Front: L R
Sampling rate : 48.0 KHz
Bit depth : 16 bits
Compression mode : Lossy
Stream size : 107 MiB (15%)
Language : English
Default : Yes
Forced : No
FileSize
The Hunger Games Catching Fire (2013) DVDRip XviD-IGUANA/The Hunger Games Catching Fire (2013) DVDRip XviD-IGUANA.wmv692.97 Mb
The Hunger Games Catching Fire (2013) DVDRip XviD-IGUANA/www.worldshouts.com.jpg166.38 Kb
The Hunger Games Catching Fire (2013) DVDRip XviD-IGUANA/The Hunger Games Catching Fire.srt46.43 Kb
TrackerSeedsLeechsDownloaded
udp://tracker.openbittorrent.com:80/scrape000
udp://tracker.publicbt.com:80/scrape000
http://ccc.x24hr.com:8080/t/scrape.php000
Report this torrent
We will carefully monitor this report and react whenever possible.
Thanks for helping us in filtering out bad content and improving TorrentReactor for every other visitor!
Please login or register to be able to report torrents.

Your comment
Please Login or register to be able to add comments.
All comments

No one has added a comment yet. Be the first one.

Related torrents
The Hunger Games Catching Fire (2013) DVDRip XviD-IGUANA, related to The Hunger Games Catching Fire (2013) DVDRip XviD-IGUANA