Homefront 2013 DvdRip Xvid 1337x Noir

Homefront 2013 DvdRip Xvid 1337x Noir

Total size: 693.18 Mb
Removed by the request of copyright owner

Homefront 2013 DvdRip Xvid 1337x Noir
  • Category
  • Added
    by Thelastst on 2013-12-14 21:53:28
  • Hash
    1e2fdd95cd8f67295288dcf94be3f46f51e148ec

Duration : 1h 58mn
Overall bit rate : 1 710 Kbps
Writing application : VirtualDubMod 1.5.10.2 (build 2542/release)
Writing library : VirtualDubMod build 2542/release
Original source form : MAX TORRENTZ
Copyright : SIGISMUNT

Video
ID : 0
Format : MPEG-4 Visual
Format profile : Advanced Simple@L5
Format settings, BVOP : 1
Format settings, QPel : No
Format settings, GMC : No warppoints
Format settings, Matrix : Default (MPEG)
Codec ID : XVID
Codec ID/Hint : XviD
Duration : 1h 58mn
Bit rate : 1 512 Kbps
Width : 720 pixels
Height : 304 pixels
Display aspect ratio : 2.35:1
Frame rate : 29.970 fps
Color space : YUV
Chroma subsampling : 4:2:0
Bit depth : 8 bits
Scan type : Progressive
Compression mode : Lossy
Bits/(Pixel*Frame) : 0.231
Stream size : 501 MiB (88%)
Writing library : XviD 73

Audio
ID : 1
Format : AC-3
Format/Info : Audio Coding 3
Mode extension : CM (complete main)
Format settings, Endianness : Big
Codec ID : 2000
Duration : 1h 58mn
Bit rate mode : Constant
Bit rate : 192 Kbps
Channel(s) : 6 channels
Channel positions : Front: L C R, Side: L R, LFE
Sampling rate : 48.0 KHz
Bit depth : 16 bits
Compression mode : Lossy
Stream size : 163 MiB (11%)
Alignment : Aligned on interleaves
Interleave, duration : 64 ms (1.92 video frames)
Interleave, preload duration : 192 ms
FileSize
Homefront.2013.DvdRip.Xvid {1337x}-Noir/Homefront-2013-dvdrip-xvid-1337x-noir.wmv692.97 Mb
Homefront.2013.DvdRip.Xvid {1337x}-Noir/www.worldshouts.com.jpg166.38 Kb
Homefront.2013.DvdRip.Xvid {1337x}-Noir/Homefront-2013-dvdrip-xvid-1337x-noir.srt46.43 Kb
TrackerSeedsLeechsDownloaded
udp://tracker.openbittorrent.com:80/scrape000
udp://tracker.publicbt.com:80/scrape000
http://ccc.x24hr.com:8080/t/scrape.php000

It's removed by the request of copyright owner, but we have tons of cool stuff like this:

Search for full movies Homefront 2013 XviD Italian English Ac3 5 1 MIRCrew, related to Homefront 2013 XviD Italian English Ac3 5 1 MIRCrew