Jackpot 2013 Hindi Movies HDSCamRip x264 with Sample ~ ☻rDX☻ torrent

Total size: 703.66 Mb Seeds 9 Leechs 1
Jackpot 2013 Hindi Movies HDSCamRip x264 with Sample ~ ☻rDX☻
							
Jackpot 2013 Hindi Movies HDSCamRip x264 with Sample ~ ☻rDX☻Please check SCREEN SHOTS first :http://moviesreview.cu.cc/2013/12/Jackpot/1.htmlhttp://moviesreview.cu.cc/2013/12/Jackpot/2.htmlhttp://moviesreview.cu.cc/2013/12/Jackpot/3.htmlhttp://moviesreview.cu.cc/2013/12/Jackpot/4.htmlhttp://moviesreview.cu.cc/2013/12/Jackpot/5.htmlhttp://moviesreview.cu.cc/2013/12/Jackpot/6.htmlAll rDX torrents are Seeding From the 1Gbps Seedbox 24X7
Format : Matroska
Format version : Version 2
File size : 699 MiB
Duration : 1h 27mn
Overall bit rate : 1 122 Kbps
Video
ID : 1
Format : AVC
Format/Info : Advanced Video Codec
Format profile : [email protected]
Format settings, CABAC : Yes
Format settings, ReFrames : 4 frames
Codec ID : V_MPEG4/ISO/AVC
Duration : 1h 27mn
Bit rate : 992 Kbps
Width : 640 pixels
Height : 272 pixels
Display aspect ratio : 2.35:1
Frame rate mode : Constant
Frame rate : 25.000 fps
Color space : YUV
Chroma subsampling : 4:2:0
Bit depth : 8 bits
Scan type : Progressive
Bits/(Pixel*Frame) : 0.228
Stream size : 605 MiB (87%)
Writing library : x264
Language : English
Default : Yes
Forced : No
Audio
ID : 2
Format : AC-3
Format/Info : Audio Coding 3
Mode extension : CM (complete main)
Format settings, Endianness : Big
Codec ID : A_AC3
Duration : 1h 27mn
Bit rate mode : Constant
Bit rate : 128 Kbps
Channel(s) : 2 channels
Channel positions : Front: L R
Sampling rate : 48.0 KHz
Bit depth : 16 bits
Compression mode : Lossy
Stream size : 79.7 MiB (11%)
Default : Yes
Forced : No
						
FileSize
Jackpot 2013 Hindi Movies HDSCamRip x264 with Sample ~ ☻rDX☻/Jackpot 2013 Hindi Movies HDSCamRip x264 with Sample ~ ☻rDX☻.mkv698.54 Mb
Jackpot 2013 Hindi Movies HDSCamRip x264 with Sample ~ ☻rDX☻/Sample ~ Jackpot 2013 Hindi Movies HDSCamRip x264 with Sample ~ ☻rDX☻.mkv5.12 Mb
TrackerSeedsLeechsDownloaded
udp://tracker.publicbt.com:80/scrape118
udp://tracker.openbittorrent.com:80/scrape309
udp://11.rarbg.com:80/scrape309
http://fr33dom.h33t.com:3310/scrape000
http://tracker.ex.ua/scrape200
Report this torrent
We will carefully monitor this report and react whenever possible.
Thanks for helping us in filtering out bad content and improving TorrentReactor for every other visitor!
Please login or register to be able to report torrents.

Your comment
Please Login or register to be able to add comments.
All comments

No one has added a comment yet. Be the first one.

Related torrents
Jackpot 2013 Hindi Movies HDSCamRip x264 with Sample ~ ☻rDX☻, related to Jackpot 2013 Hindi Movies HDSCamRip x264 with Sample ~ ☻rDX☻