English

Verified torrent

Beyonce - Drunk in Love (feat. Jay Z).m4v

Total size: 83.49 Mb Seeds 228 Leechs 0
Beyonce - Drunk in Love - (feat. Jay Z).2013
From The New Album – Beyonce – BEYONCE.2013
Format                           : MPEG-4
Codec ID                         : M4V
File size                        : 83.5 MiB
Duration                         : 6mn 21s
Overall bit rate                 : 1 836 Kbps
Movie name                       : Drunk in Love (feat. Jay Z)
Album                            : BEYONCE
Album/Performer                  : Beyonce
Track name/Position              : 1
Track name/Total                 : 1
Performer                        : Beyonce
Genre                            : R&B
Recorded date                    : 2013
Video
ID                               : 1
Format                           : AVC
Format/Info                      : Advanced Video Codec
Format profile                   : Baseline@L3.0
Format settings, CABAC           : No
Format settings, ReFrames        : 1 frame
Format settings, GOP             : M=1, N=53
Codec ID                         : avc1
Codec ID/Info                    : Advanced Video Coding
Duration                         : 6mn 21s
Bit rate mode                    : Variable
Bit rate                         : 1 579 Kbps
Width                            : 640 pixels
Height                           : 480 pixels
Display aspect ratio             : 16:9
Frame rate mode                  : Constant
Frame rate                       : 23.976 fps
Color space                      : YUV
Chroma subsampling               : 4:2:0
Bit depth                        : 8 bits
Scan type                        : Progressive
Bits/(Pixel*Frame)               : 0.214
Stream size                      : 71.8 MiB (86%)
Language                         : English
Audio
ID                               : 2
Format                           : AAC
Format/Info                      : Advanced Audio Codec
Format profile                   : LC
Codec ID                         : 40
Duration                         : 6mn 21s
Bit rate mode                    : Constant
Bit rate                         : 256 Kbps
Channel(s)                       : 2 channels
Channel positions                : Front: L R
Sampling rate                    : 44.1 KHz
Compression mode                 : Lossy
Stream size                      : 11.5 MiB (14%)
Language                         : English

Beyonce -  Drunk in Love (feat. Jay Z).m4v

Beyonce -  Drunk in Love (feat. Jay Z).m4v

Beyonce -  Drunk in Love (feat. Jay Z).m4v

Beyonce -  Drunk in Love (feat. Jay Z).m4v

FileSize
Beyonce - Drunk in Love (feat. Jay Z).m4v83.49 Mb
TrackerSeedsLeechsDownloaded
udp://tracker.openbittorrent.com:80/scrape111010
udp://tracker.publicbt.com:80/scrape117010

Report this torrent

We will carefully monitor this report and react whenever possible.
Thanks for helping us in filtering out bad content and improving TorrentReactor for every other visitor!
Please login or register to be able to report torrents.

Your comment

Please Login or register to be able to add comments.

All comments

No one has added a comment yet. Be the first one.

Related torrents

Beyonce - Drunk in Love (feat. Jay Z).m4v, related to Beyonce - Drunk in Love (feat. Jay Z).m4v