English

Shame the Devil 2013 BDRip x264 AC3-MiLLENiUM

Total size: 767.64 Mb Seeds 20 Leechs 6




Shame.the.Devil.2013.BDRip.x264.AC3-MiLLENiUM
General
Source...............: COMPLETE.BLURAY-GMB 
Sample Included......: yes
General
Complete name                            : Shame the Devil 2013 BDRip x264 AC3-MiLLENiUM.mkv
Format                                   : Matroska
Format version                           : Version 2
File size                                : 758 MiB
Duration                                 : 1h 34mn
Overall bit rate mode                    : Variable
Overall bit rate                         : 1 118 Kbps
Encoded date                             : UTC 2013-12-13 01:22:22
Writing application                      : mkvmerge v6.5.0 ('Isn't she lovely') built on Oct 20 2013 12:50:05
Writing library                          : libebml v1.3.0 + libmatroska v1.4.1
Video
ID                                       : 1
Format                                   : AVC
Format/Info                              : Advanced Video Codec
Format profile                           : High@L4.1
Format settings, CABAC                   : Yes
Format settings, ReFrames                : 3 frames
Codec ID                                 : V_MPEG4/ISO/AVC
Duration                                 : 1h 34mn
Bit rate mode                            : Variable
Bit rate                                 : 648 Kbps
Maximum bit rate                         : 40.0 Mbps
Width                                    : 720 pixels
Height                                   : 304 pixels
Display aspect ratio                     : 2.35:1
Frame rate mode                          : Constant
Frame rate                               : 23.976 fps
Color space                              : YUV
Chroma subsampling                       : 4:2:0
Bit depth                                : 8 bits
Scan type                                : Progressive
Bits/(Pixel*Frame)                       : 0.124
Stream size                              : 439 MiB (58%)
Writing library                          : x264 core 140 r2377 1ca7bb9
Audio
ID                                       : 2
Format                                   : AC-3
Format/Info                              : Audio Coding 3
Mode extension                           : CM (complete main)
Format settings, Endianness              : Big
Codec ID                                 : A_AC3
Duration                                 : 1h 34mn
Bit rate mode                            : Constant
Bit rate                                 : 448 Kbps
Channel(s)                               : 6 channels
Channel positions                        : Front: L C R, Side: L R, LFE
Sampling rate                            : 48.0 KHz
Bit depth                                : 16 bits
Compression mode                         : Lossy
Stream size                              : 303 MiB (40%)
Language                                 : English
Default                                  : Yes
Forced                                   : Nohttp://www.imdb.com/title/tt1753967/
Plot
A London detective tracking a serial killer finds the killers "truth or die" methods take him to New York to solve the case.
Screenshots


FileSize
Shame the Devil 2013 BDRip x264 AC3-MiLLENiUM/Sample.mkv10.09 Mb
Shame the Devil 2013 BDRip x264 AC3-MiLLENiUM/Shame the Devil 2013 BDRip x264 AC3-MiLLENiUM.mkv757.55 Mb
Shame the Devil 2013 BDRip x264 AC3-MiLLENiUM/Torrent Downloaded From ExtraTorrent.cc.txt338.00 b
Shame the Devil 2013 BDRip x264 AC3-MiLLENiUM/shameBD.nfo3.81 Kb
TrackerSeedsLeechsDownloaded
udp://11.rarbg.com:80/scrape417
udp://tracker.openbittorrent.com:80/scrape417
udp://tracker.publicbt.com:80/scrape319
udp://9.rarbg.com:2710/scrape20642
udp://10.rarbg.com/scrape319
udp://12.rarbg.me:80/scrape4210

Report this torrent

We will carefully monitor this report and react whenever possible.
Thanks for helping us in filtering out bad content and improving TorrentReactor for every other visitor!
Please login or register to be able to report torrents.

Your comment

Please Login or register to be able to add comments.

All comments

No one has added a comment yet. Be the first one.

Related torrents

Shame the Devil 2013 BDRip x264 AC3-MiLLENiUM, related to Shame the Devil 2013 BDRip x264 AC3-MiLLENiUM