English

Jackie Brown

Total size: 2.43 Gb Seeds 6 Leechs 5
							*****************************************************************
 Jackie Brown (1997)						 
*****************************************************************
Encoded By PcTechPaul
-------------------------------------------------------------------------------
 General Information
-------------------------------------------------------------------------------
Type.................: Movie
Platform.............: Video
More Info............: https://kickass.to/user/PcTechPaul/uploads/
Video Format.........: mp4
Video Bitrate........: 1920
Resolution...........: 1080p
Color................: 8 bit
FPS..................: 23.976
Source...............: Bluray
Original Format......: NTSC
Genre................: Crime | Drama | Thriller
IMDb Rating..........: 7.5
Movie Information....: http://www.imdb.com/title/tt0119396/
-------------------------------------------------------------------------------
 Release Notes
-------------------------------------------------------------------------------
Complete name : M:Jackie Brownjackiebrown.mp4
Format : MPEG-4
Format profile : Base Media / Version 2
Codec ID : mp42
File size : 2.42 GiB
Duration : 2h 34mn
Overall bit rate mode : Variable
Overall bit rate : 2245 Kbps
Video
ID : 1
Format : AVC
Format/Info : Advanced Video Codec
Format profile : High@L5.0
Format settings, CABAC : Yes
Format settings, ReFrames : 8 frames
Codec ID : avc1
Codec ID/Info : Advanced Video Coding
Duration : 2h 34mn
Bit rate mode : Variable
Bit rate : 1 920 Kbps
Width : 1 920 pixels
Height : 1 040 pixels
Display aspect ratio : 1.85:1
Frame rate mode : Variable
Frame rate : 23.976 fps
Minimum frame rate : 23.810 fps
Maximum frame rate : 24.390 fps
Color space : YUV
Chroma subsampling : 4:2:0
Bit depth : 8 bits
Scan type : Progressive
Bits/(Pixel*Frame) : 0.040
Stream size : 2.07 GiB (86%)
Writing library : x264 core 130 r2273 b3065e6
Encoding settings : cabac=1 / ref=8 / deblock=1:0:0 / analyse=0x3:0x113 / me=hex / subme=7 / psy=1 / psy_rd=1.20:0.20 / mixed_ref=1 / me_range=16 / chroma_me=1 / trellis=1 / 8x8dct=1 / cqm=0 / deadzone=21,11 / fast_pskip=1 / chroma_qp_offset=-3 / threads=12 / lookahead_threads=2 / sliced_threads=0 / nr=0 / decimate=1 / interlaced=0 / bluray_compat=0 / constrained_intra=0 / bframes=8 / b_pyramid=2 / b_adapt=1 / b_bias=0 / direct=1 / weightb=1 / open_gop=0 / weightp=2 / keyint=240 / keyint_min=24 / scenecut=40 / intra_refresh=0 / rc_lookahead=40 / rc=2pass / mbtree=1 / bitrate=1920 / ratetol=1.0 / qcomp=0.60 / qpmin=0 / qpmax=69 / qpstep=4 / cplxblur=20.0 / qblur=0.5 / ip_ratio=1.40 / aq=1:1.00
Color primaries : BT.709
Transfer characteristics : BT.709
Matrix coefficients : BT.709
Audio
ID : 2
Format : AAC
Format/Info : Advanced Audio Codec
Format profile : LC
Codec ID : 40
Duration : 2h 34mn
Bit rate mode : Variable
Bit rate : 320 Kbps
Maximum bit rate : 552 Kbps
Channel(s) : 6 channels
Channel positions : Front: L C R, Side: L R, LFE
Sampling rate : 48.0 KHz
Compression mode : Lossy
Delay relative to video : 83ms
Stream size : 353 MiB (14%)
Language : English
						
FileSize
Jackie Brown/jackiebrown.mp42.42 Gb
Jackie Brown/ScreenShots/6.png2.33 Mb
Jackie Brown/ScreenShots/1.png2.31 Mb
Jackie Brown/ScreenShots/5.png2.07 Mb
Jackie Brown/ScreenShots/2.png1.89 Mb
Jackie Brown/ScreenShots/4.png1.57 Mb
Jackie Brown/ScreenShots/3.png915.86 Kb
Jackie Brown/PcTechPaul.nfo5.49 Kb
TrackerSeedsLeechsDownloaded
udp://tracker.publicbt.com:80/scrape121
udp://tracker.openbittorrent.com:80/scrape111
udp://tracker.istole.it:80/scrape2210
udp://9.rarbg.com:2710/scrape2013
http://exodus.desync.com/scrape000

Report this torrent

We will carefully monitor this report and react whenever possible.
Thanks for helping us in filtering out bad content and improving TorrentReactor for every other visitor!
Please login or register to be able to report torrents.

Your comment

Please Login or register to be able to add comments.

All comments

No one has added a comment yet. Be the first one.

Related torrents

Jackie Brown, related to Jackie Brown