R Rajkumar 2013 Hindi Movies DVDScr x264 1CD AC 3 Cool_Candy

Verified torrent

R Rajkumar 2013 Hindi Movies DVDScr x264 1CD AC 3 Cool_Candy

Total size: 504.66 Mb Seeds 3 Leechs 27

R...Rajkumar {2013} - Hindi Movies - DVDScr - x264 - 1CD - AC-3 - Cool_Candy









General
Unique ID                                : 274604893862780262687214779778951014982 (0xCE96FA926951BA48BC9A57A7366BEA46)
Complete name                            : R...Rajkumar {2013} - Hindi Movies - DVDScr - x264 - 1CD - AC-3 - Cool_Candy.mkv
Format                                   : Matroska
Format version                           : Version 2
File size                                : 502 MiB
Duration                                 : 2h 25mn
Overall bit rate                         : 481 Kbps
Writing application                      : Lavf54.6.100
Writing library                          : Lavf54.6.100
Video
ID                                       : 1
Format                                   : AVC
Format/Info                              : Advanced Video Codec
Format profile                           : Baseline@L1.3
Format settings, CABAC                   : No
Format settings, ReFrames                : 2 frames
Codec ID                                 : V_MPEG4/ISO/AVC
Duration                                 : 2h 25mn
Bit rate                                 : 384 Kbps
Width                                    : 640 pixels
Height                                   : 272 pixels
Display aspect ratio                     : 2.35:1
Frame rate mode                          : Constant
Frame rate                               : 23.976 fps
Color space                              : YUV
Chroma subsampling                       : 4:2:0
Bit depth                                : 8 bits
Scan type                                : Progressive
Bits/(Pixel*Frame)                       : 0.092
Stream size                              : 392 MiB (78%)
Writing library                          : x264 core 119
Encoding settings                        : Cool_Candy
Default                                  : Yes
Forced                                   : No
Audio
ID                                       : 2
Format                                   : AC-3
Format/Info                              : Audio Coding 3
Mode extension                           : CM (complete main)
Format settings, Endianness              : Big
Codec ID                                 : A_AC3
Duration                                 : 2h 25mn
Bit rate mode                            : Constant
Bit rate                                 : 96.0 Kbps
Channel(s)                               : 2 channels
Channel positions                        : Front: L R
Sampling rate                            : 48.0 KHz
Bit depth                                : 16 bits
Compression mode                         : Lossy
Delay relative to video                  : 1mn 5s
Stream size                              : 100 MiB (20%)
Title                                    : VTS_01_1 T80 2_0ch 192Kbps DELAY 0ms
Default                                  : Yes
Forced                                   : No





       

http://www.maxmirror.com/download/0BXWURHG


1. Seeding will be slow. Be patient! 
2. Don't be naughty! Do seed to help fellow members download this release.
3. If you have any constructive criticism feel free to PM me.









R Rajkumar 2013 Hindi Movies DVDScr x264 1CD AC 3 Cool_Candy

R Rajkumar 2013 Hindi Movies DVDScr x264 1CD AC 3 Cool_Candy

R Rajkumar 2013 Hindi Movies DVDScr x264 1CD AC 3 Cool_Candy

R Rajkumar 2013 Hindi Movies DVDScr x264 1CD AC 3 Cool_Candy

FileSize
R...Rajkumar {2013} - Hindi Movies - DVDScr - x264 - 1CD - AC-3 - Cool_Candy/R...Rajkumar {2013} - Hindi Movies - DVDScr - x264 - 1CD - AC-3 - Cool_Candy.mkv501.84 Mb
R...Rajkumar {2013} - Hindi Movies - DVDScr - x264 - 1CD - AC-3 - Cool_Candy/vlcsnap-2013-12-08-18h01m52s50.png410.94 Kb
R...Rajkumar {2013} - Hindi Movies - DVDScr - x264 - 1CD - AC-3 - Cool_Candy/vlcsnap-2013-12-08-18h02m50s135.png406.33 Kb
R...Rajkumar {2013} - Hindi Movies - DVDScr - x264 - 1CD - AC-3 - Cool_Candy/vlcsnap-2013-12-08-18h01m41s208.png322.06 Kb
R...Rajkumar {2013} - Hindi Movies - DVDScr - x264 - 1CD - AC-3 - Cool_Candy/vlcsnap-2013-12-08-18h03m53s248.png320.17 Kb
R...Rajkumar {2013} - Hindi Movies - DVDScr - x264 - 1CD - AC-3 - Cool_Candy/vlcsnap-2013-12-08-18h03m05s247.png312.35 Kb
R...Rajkumar {2013} - Hindi Movies - DVDScr - x264 - 1CD - AC-3 - Cool_Candy/vlcsnap-2013-12-08-18h04m38s193.png277.50 Kb
R...Rajkumar {2013} - Hindi Movies - DVDScr - x264 - 1CD - AC-3 - Cool_Candy/vlcsnap-2013-12-08-18h04m49s45.png275.99 Kb
R...Rajkumar {2013} - Hindi Movies - DVDScr - x264 - 1CD - AC-3 - Cool_Candy/vlcsnap-2013-12-08-18h04m27s86.png254.25 Kb
R...Rajkumar {2013} - Hindi Movies - DVDScr - x264 - 1CD - AC-3 - Cool_Candy/vlcsnap-2013-12-08-18h00m34s40.png223.59 Kb
R...Rajkumar {2013} - Hindi Movies - DVDScr - x264 - 1CD - AC-3 - Cool_Candy/vlcsnap-2013-12-08-18h03m30s15.png88.50 Kb
R...Rajkumar {2013} - Hindi Movies - DVDScr - x264 - 1CD - AC-3 - Cool_Candy/Torrent Downloaded From ExtraTorrent.cc.txt353.00 b
TrackerSeedsLeechsDownloaded
udp://tracker.openbittorrent.com:80/scrape0310
udp://tracker.publicbt.com:80/scrape0310
udp://tracker.glotorrents.com:6969/scrape149
udp://10.rarbg.com/scrape0310
udp://ipv4.tracker.harry.lu:80/scrape0310
udp://9.rarbg.me:2710/scrape031814
udp://tracker.yify-torrents.com/scrape0210
udp://tracker.istole.it:80/scrape1310
http://94.228.192.98/scrape131
http://tracker.torrentfrancais.com/scrape000
http://tracker.coppersurfer.tk:6969/scrape000
http://tracker.nwps.ws:6969/scrape000
http://tracker1.wasabii.com.tw:6969/scrape000
Report this torrent
We will carefully monitor this report and react whenever possible.
Thanks for helping us in filtering out bad content and improving TorrentReactor for every other visitor!
Please login or register to be able to report torrents.

Your comment

Please Login or register to be able to add comments.

All comments

No one has added a comment yet. Be the first one.

Related movies

Search for full movies R Rajkumar 2013 Hindi Movies DVDScr x264 1CD AC 3 Cool_Candy, related to R Rajkumar 2013 Hindi Movies DVDScr x264 1CD AC 3 Cool_Candy