R Rajkumar 2013 Hindi Movies PDVDRip x264 with Sample rDX

R Rajkumar 2013 Hindi Movies PDVDRip x264 with Sample rDX

Total size: 698.98 Mb
Removed by the request of copyright owner

  • Category
  • Added
    on 2013-12-08 20:50:03
  • Hash
    2cfac8e2ba32abf529d1bc5da7bc6ad22f590b41
R... Rajkumar 2013 Hindi Movies PDVDRip x264 with Sample ~ ☻rDX☻
Please check SCREEN SHOTS first :http://moviereview.cu.cc/2013/12/RRajkumarDS/1.htmlhttp://moviereview.cu.cc/2013/12/RRajkumarDS/2.htmlhttp://moviereview.cu.cc/2013/12/RRajkumarDS/3.htmlhttp://moviereview.cu.cc/2013/12/RRajkumarDS/4.htmlhttp://moviereview.cu.cc/2013/12/RRajkumarDS/5.htmlhttp://moviereview.cu.cc/2013/12/RRajkumarDS/6.html
All rDX torrents are Seeding From the 1Gbps Seedbox 24X7
Format : Matroska
Format version : Version 4 / Version 2
File size : 692 MiB
Duration : 2h 25mn
Overall bit rate mode : Variable
Overall bit rate : 663 Kbps
Encoded date : UTC 2013-12-08 09:45:21
Video
ID : 2
Format : AVC
Format/Info : Advanced Video Codec
Format profile : 
/*  */

Format settings, CABAC : Yes
Format settings, ReFrames : 4 frames
Codec ID : V_MPEG4/ISO/AVC
Duration : 2h 25mn
Bit rate : 602 Kbps
Width : 608 pixels
Height : 240 pixels
Display aspect ratio : 2.533
Frame rate mode : Constant
Frame rate : 29.970 fps
Color space : YUV
Chroma subsampling : 4:2:0
Bit depth : 8 bits
Scan type : Progressive
Bits/(Pixel*Frame) : 0.138
Stream size : 611 MiB (88%)
Writing library : x264
Language : English
Default : Yes
Forced : No
Audio
ID : 1
Format : MPEG Audio
Format version : Version 2
Format profile : Layer 3
Mode : Joint stereo
Mode extension : MS Stereo
Codec ID : A_MPEG/L3
Codec ID/Hint : MP3
Duration : 2h 24mn
Bit rate mode : Variable
Bit rate : 64.0 Kbps
Channel(s) : 2 channels
Sampling rate : 24.0 KHz
Compression mode : Lossy
Stream size : 66.1 MiB (10%)
Writing library : LAME3.99r
Encoding settings : -m j -V 4 -q 2 -lowpass 11 --abr 64
Default : Yes
Forced
FileSize
R... Rajkumar 2013 Hindi Movies PDVDRip x264 with Sample ~ ☻rDX☻/R... Rajkumar 2013 Hindi Movies PDVDRip x264 ~ ☻rDX☻.avi691.64 Mb
R... Rajkumar 2013 Hindi Movies PDVDRip x264 with Sample ~ ☻rDX☻/Sample ~ R... Rajkumar 2013 Hindi Movies PDVDRip x264 ~ ☻rDX☻.avi7.33 Mb
TrackerSeedsLeechsDownloaded
udp://tracker.publicbt.com:80/scrape209
udp://tracker.openbittorrent.com:80/scrape2010
udp://tracker.istole.it:80/scrape2110
udp://11.rarbg.com:80/scrape2010
udp://9.rarbg.com:2710/scrape211
http://fr33dom.h33t.com:3310/scrape000
http://tracker.ex.ua/scrape211
Search for full movies R Rajkumar 2013 Hindi Movies PDVDRip x264 with Sample rDX, related to R Rajkumar 2013 Hindi Movies PDVDRip x264 with Sample rDX