John Dies At The End 2012 DVD R

John Dies At The End 2012 DVD R

Total size: 4.37 Gb
Removed by the request of copyright owner

  • Category
  • Added
    on 2013-12-06 02:49:05
  • Hash
    dd67ccb8a542c7208b6df0ad0938640c81daaf28
http://www.imdb.com/title/tt1783732/?ref_=nv_sr_1
A new street drug that sends its users across time and dimensions has one drawback: some people return as no longer human. Can two college dropouts save humankind from this silent, otherworldly invasion?
Language: English
Subtitles: Norwegian, Swedish, Danish, Finnish
For Newer Users.
Simply Drag downloaded folder to your Media Player. This is a PAL DVD.
This is ripped so you would have best quality, menu, bonus/special feature, language options etc.
Video
ID : 224 (0xE0)
Format : MPEG Video
Format version : Version 2
Format profile : Main@Main
Format settings, BVOP : Yes
Format settings, Matrix : Custom
Format settings, GOP : M=3, N=12
Duration : 18mn 19s
Bit rate : 7 200 Kbps
Width : 720 pixels
Height : 576 pixels
Display aspect ratio : 16:9
Frame rate : 25.000 fps
Standard : PAL
Color space : YUV
Chroma subsampling : 4:2:0
Bit depth : 8 bits
Scan type : Progressive
Compression mode : Lossy
Bits/(Pixel*Frame) : 0.694
Time code of first frame : 00:00:00:00
Time code source : Group of pictures header
Stream size : 945 MiB (92%)
Color primaries : BT.601 PAL
Transfer characteristics : BT.470 System B, BT.470 System G
Matrix coefficients : BT.601
Audio
ID : 189 (0xBD)-128 (0x80)
Format : AC-3
Format/Info : Audio Coding 3
Mode extension : CM (complete main)
Format settings, Endianness : Big
Muxing mode : DVD-Video
Duration : 18mn 18s
Bit rate mode : Constant
Bit rate : 448 Kbps
Channel count : 6 channels
Channel positions : Front: L C R, Side: L R, LFE
Sampling rate : 48.0 KHz
Bit depth : 16 bits
Compression mode : Lossy
Stream size : 58.7 MiB
FileSize
John Dies At The End 2012 DVD-R/VIDEO_TS/VTS_06_2.VOB1,024.00 Mb
John Dies At The End 2012 DVD-R/VIDEO_TS/VTS_06_3.VOB1,024.00 Mb
John Dies At The End 2012 DVD-R/VIDEO_TS/VTS_06_1.VOB1,024.00 Mb
John Dies At The End 2012 DVD-R/VIDEO_TS/VTS_06_4.VOB1,024.00 Mb
John Dies At The End 2012 DVD-R/VIDEO_TS/VTS_06_5.VOB347.24 Mb
John Dies At The End 2012 DVD-R/VIDEO_TS/VTS_01_0.VOB27.56 Mb
John Dies At The End 2012 DVD-R/VIDEO_TS/VTS_06_0.BUP66.00 Kb
John Dies At The End 2012 DVD-R/VIDEO_TS/VTS_06_0.IFO66.00 Kb
John Dies At The End 2012 DVD-R/VIDEO_TS/VTS_02_1.VOB20.00 Kb
John Dies At The End 2012 DVD-R/VIDEO_TS/VTS_01_1.VOB20.00 Kb
John Dies At The End 2012 DVD-R/VIDEO_TS/VTS_01_0.IFO20.00 Kb
John Dies At The End 2012 DVD-R/VIDEO_TS/VTS_01_0.BUP20.00 Kb
John Dies At The End 2012 DVD-R/VIDEO_TS/VTS_03_1.VOB20.00 Kb
John Dies At The End 2012 DVD-R/VIDEO_TS/VTS_04_1.VOB20.00 Kb
John Dies At The End 2012 DVD-R/VIDEO_TS/VTS_05_1.VOB20.00 Kb
John Dies At The End 2012 DVD-R/VIDEO_TS/VTS_05_0.IFO12.00 Kb
John Dies At The End 2012 DVD-R/VIDEO_TS/VTS_05_0.BUP12.00 Kb
John Dies At The End 2012 DVD-R/VIDEO_TS/VTS_03_0.IFO12.00 Kb
John Dies At The End 2012 DVD-R/VIDEO_TS/VTS_04_0.IFO12.00 Kb
John Dies At The End 2012 DVD-R/VIDEO_TS/VTS_03_0.BUP12.00 Kb
John Dies At The End 2012 DVD-R/VIDEO_TS/VTS_02_0.IFO12.00 Kb
John Dies At The End 2012 DVD-R/VIDEO_TS/VTS_02_0.BUP12.00 Kb
John Dies At The End 2012 DVD-R/VIDEO_TS/VIDEO_TS.IFO12.00 Kb
John Dies At The End 2012 DVD-R/VIDEO_TS/VIDEO_TS.BUP12.00 Kb
John Dies At The End 2012 DVD-R/VIDEO_TS/VTS_04_0.BUP12.00 Kb
TrackerSeedsLeechsDownloaded
udp://tracker.publicbt.com:80/scrape10610
udp://tracker.openbittorrent.com:80/scrape10410
Search for full movies John Dies at the End 2012 720P HQ AC3 DD5 1 Externe Eng Ned Subs TBS, related to John Dies at the End 2012 720P HQ AC3 DD5 1 Externe Eng Ned Subs TBS